  0
SECTION
  2
HEADER
  9
$ACADVER
  1
AC1009
  9
$INSBASE
 10
0.0
 20
0.0
 30
0.0
  9
$EXTMIN
 10
0.0
 20
-0.0000000000000064
 30
0.0
  9
$EXTMAX
 10
622.42962054053226
 20
124.1303506052799
 30
0.0
  9
$LIMMIN
 10
0.0
 20
0.0
  9
$LIMMAX
 10
420.0
 20
297.0
  9
$ORTHOMODE
 70
     0
  9
$REGENMODE
 70
     1
  9
$FILLMODE
 70
     1
  9
$QTEXTMODE
 70
     0
  9
$MIRRTEXT
 70
     1
  9
$DRAGMODE
 70
     2
  9
$LTSCALE
 40
1.0
  9
$OSMODE
 70
    37
  9
$ATTMODE
 70
     1
  9
$TEXTSIZE
 40
0.2
  9
$TRACEWID
 40
1.0
  9
$TEXTSTYLE
  7
STANDARD
  9
$CLAYER
  8
TEXT_COTE
  9
$CELTYPE
  6
BYLAYER
  9
$CECOLOR
 62
   256
  9
$DIMSCALE
 40
1.0
  9
$DIMASZ
 40
2.5
  9
$DIMEXO
 40
0.625
  9
$DIMDLI
 40
3.75
  9
$DIMRND
 40
0.0
  9
$DIMDLE
 40
0.0
  9
$DIMEXE
 40
1.25
  9
$DIMTP
 40
0.0
  9
$DIMTM
 40
0.0
  9
$DIMTXT
 40
2.5
  9
$DIMCEN
 40
2.5
  9
$DIMTSZ
 40
0.0
  9
$DIMTOL
 70
     0
  9
$DIMLIM
 70
     0
  9
$DIMTIH
 70
     0
  9
$DIMTOH
 70
     0
  9
$DIMSE1
 70
     0
  9
$DIMSE2
 70
     0
  9
$DIMTAD
 70
     1
  9
$DIMZIN
 70
     8
  9
$DIMBLK
  1

  9
$DIMASO
 70
     1
  9
$DIMSHO
 70
     1
  9
$DIMPOST
  1

  9
$DIMAPOST
  1

  9
$DIMALT
 70
     0
  9
$DIMALTD
 70
     3
  9
$DIMALTF
 40
0.03937
  9
$DIMLFAC
 40
1.0
  9
$DIMTOFL
 70
     1
  9
$DIMTVP
 40
0.0
  9
$DIMTIX
 70
     0
  9
$DIMSOXD
 70
     0
  9
$DIMSAH
 70
     0
  9
$DIMBLK1
  1

  9
$DIMBLK2
  1

  9
$DIMSTYLE
  2
STANDARD
  9
$DIMCLRD
 70
     0
  9
$DIMCLRE
 70
     0
  9
$DIMCLRT
 70
     0
  9
$DIMTFAC
 40
1.0
  9
$DIMGAP
 40
0.625
  9
$LUNITS
 70
     2
  9
$LUPREC
 70
     4
  9
$SKETCHINC
 40
1.0
  9
$FILLETRAD
 40
2.5
  9
$AUNITS
 70
     0
  9
$AUPREC
 70
     0
  9
$MENU
  1
.
  9
$ELEVATION
 40
0.0
  9
$PELEVATION
 40
0.0
  9
$THICKNESS
 40
0.0
  9
$LIMCHECK
 70
     0
  9
$BLIPMODE
 70
     0
  9
$CHAMFERA
 40
2.5
  9
$CHAMFERB
 40
2.5
  9
$SKPOLY
 70
     0
  9
$TDCREATE
 40
2305814.208333334
  9
$TDUPDATE
 40
2458293.8802754749
  9
$TDINDWG
 40
0.0630728241
  9
$TDUSRTIMER
 40
0.0630721065
  9
$USRTIMER
 70
     1
  9
$ANGBASE
 50
0.0
  9
$ANGDIR
 70
     0
  9
$PDMODE
 70
     0
  9
$PDSIZE
 40
0.0
  9
$PLINEWID
 40
0.0
  9
$COORDS
 70
     1
  9
$SPLFRAME
 70
     0
  9
$SPLINETYPE
 70
     6
  9
$SPLINESEGS
 70
     8
  9
$ATTDIA
 70
     0
  9
$ATTREQ
 70
     1
  9
$HANDLING
 70
     1
  9
$HANDSEED
  5
5546
  9
$SURFTAB1
 70
     6
  9
$SURFTAB2
 70
     6
  9
$SURFTYPE
 70
     6
  9
$SURFU
 70
     6
  9
$SURFV
 70
     6
  9
$UCSNAME
  2

  9
$UCSORG
 10
0.0
 20
0.0
 30
0.0
  9
$UCSXDIR
 10
1.0
 20
0.0
 30
0.0
  9
$UCSYDIR
 10
0.0
 20
1.0
 30
0.0
  9
$PUCSNAME
  2

  9
$PUCSORG
 10
0.0
 20
0.0
 30
0.0
  9
$PUCSXDIR
 10
1.0
 20
0.0
 30
0.0
  9
$PUCSYDIR
 10
0.0
 20
1.0
 30
0.0
  9
$USERI1
 70
     0
  9
$USERI2
 70
     0
  9
$USERI3
 70
     0
  9
$USERI4
 70
     0
  9
$USERI5
 70
     0
  9
$USERR1
 40
0.0
  9
$USERR2
 40
0.0
  9
$USERR3
 40
0.0
  9
$USERR4
 40
0.0
  9
$USERR5
 40
0.0
  9
$WORLDVIEW
 70
     1
  9
$SHADEDGE
 70
     3
  9
$SHADEDIF
 70
    70
  9
$TILEMODE
 70
     1
  9
$MAXACTVP
 70
    48
  9
$PLIMCHECK
 70
     0
  9
$PEXTMIN
 10
0.0
 20
0.0
 30
0.0
  9
$PEXTMAX
 10
600.0
 20
300.0
 30
2.0
  9
$PLIMMIN
 10
0.0
 20
0.0
  9
$PLIMMAX
 10
420.0
 20
297.0
  9
$UNITMODE
 70
     0
  9
$VISRETAIN
 70
     0
  9
$PLINEGEN
 70
     0
  9
$PSLTSCALE
 70
     1
  0
ENDSEC
  0
SECTION
  2
TABLES
  0
TABLE
  2
VPORT
 70
     1
  0
VPORT
  2
*ACTIVE
 70
     0
 10
0.0
 20
0.0
 11
1.0
 21
1.0
 12
311.22110001878218
 22
148.49764370105439
 13
0.0
 23
0.0
 14
1.0
 24
1.0
 15
0.0
 25
0.0
 16
0.0
 26
0.0
 36
1.0
 17
0.0
 27
0.0
 37
0.0
 40
300.62514533897058
 41
2.5150300601202402
 42
50.0
 43
0.0
 44
0.0
 50
0.0
 51
0.0
 71
     0
 72
 20000
 73
     1
 74
     1
 75
     0
 76
     0
 77
     0
 78
     0
  0
ENDTAB
  0
TABLE
  2
LTYPE
 70
     1
  0
LTYPE
  2
CONTINUOUS
 70
     0
  3
Solid line
 72
    65
 73
     0
 40
0.0
  0
ENDTAB
  0
TABLE
  2
LAYER
 70
     3
  0
LAYER
  2
0
 70
     0
 62
     1
  6
CONTINUOUS
  0
LAYER
  2
TEXT_COTE
 70
     0
 62
     4
  6
CONTINUOUS
  0
LAYER
  2
DEFPOINTS
 70
     0
 62
     7
  6
CONTINUOUS
  0
ENDTAB
  0
TABLE
  2
STYLE
 70
     2
  0
STYLE
  2
STANDARD
 70
     0
 40
0.0
 41
1.0
 50
0.0
 71
     0
 42
0.2
  3
txt
  4

  0
STYLE
  2
ANNOTATIVE
 70
     0
 40
0.0
 41
1.0
 50
0.0
 71
     0
 42
0.2
  3
txt
  4

  0
ENDTAB
  0
TABLE
  2
VIEW
 70
     0
  0
ENDTAB
  0
TABLE
  2
UCS
 70
     0
  0
ENDTAB
  0
TABLE
  2
APPID
 70
     7
  0
APPID
  2
ACAD
 70
     0
  0
APPID
  2
ACADANNOTATIVE
 70
     0
  0
APPID
  2
ACAD_MLEADERVER
 70
     0
  0
APPID
  2
ACAD_DSTYLE_DIMRADIAL_EXTENSION
 70
     0
  0
APPID
  2
ACAD_EXEMPT_FROM_CAD_STANDARDS
 70
     0
  0
APPID
  2
DCO15
 70
     0
  0
APPID
  2
ACAECLAYERSTANDARD
 70
     0
  0
ENDTAB
  0
TABLE
  2
DIMSTYLE
 70
     2
  0
DIMSTYLE
  2
STANDARD
 70
     0
  3

  4

  5

  6

  7

 40
1.0
 41
0.18
 42
0.0625
 43
0.38
 44
0.18
 45
0.0
 46
0.0
 47
0.0
 48
0.0
140
0.18
141
0.09
142
0.0
143
25.399999999999999
144
1.0
145
0.0
146
1.0
147
0.09
 71
     0
 72
     0
 73
     1
 74
     1
 75
     0
 76
     0
 77
     0
 78
     0
170
     0
171
     2
172
     0
173
     0
174
     0
175
     0
176
     0
177
     0
178
     0
  0
DIMSTYLE
  2
ANNOTATIVE
 70
     0
  3

  4

  5

  6

  7

 40
1.0
 41
0.18
 42
0.0625
 43
0.38
 44
0.18
 45
0.0
 46
0.0
 47
0.0
 48
0.0
140
0.18
141
0.09
142
0.0
143
25.399999999999999
144
1.0
145
0.0
146
1.0
147
0.09
 71
     0
 72
     0
 73
     1
 74
     1
 75
     0
 76
     0
 77
     0
 78
     0
170
     0
171
     2
172
     0
173
     0
174
     0
175
     0
176
     0
177
     0
178
     0
  0
ENDTAB
  0
ENDSEC
  0
SECTION
  2
BLOCKS
  0
BLOCK
  8
0
  2
$MODEL_SPACE
 70
     0
 10
0.0
 20
0.0
 30
0.0
  3
$MODEL_SPACE
  1

  0
ENDBLK
  5
50D8
  8
0
  0
BLOCK
 67
     1
  8
0
  2
$PAPER_SPACE
 70
     0
 10
0.0
 20
0.0
 30
0.0
  3
$PAPER_SPACE
  1

  0
ENDBLK
  5
50D4
 67
     1
  8
0
  0
BLOCK
  8
0
  2
*D2
 70
     1
 10
0.0
 20
0.0
 30
0.0
  3
*D2
  1

  0
LINE
  5
1770
  8
TEXT_COTE
 62
     0
 10
0.0
 20
100.625
 30
0.0
 11
0.0000000000000011
 21
118.4077347178242
 31
0.0
  0
LINE
  5
1771
  8
TEXT_COTE
 62
     0
 10
600.0
 20
100.625
 30
0.0
 11
600.0
 21
118.4077347178242
 31
0.0
  0
LINE
  5
1772
  8
TEXT_COTE
 62
     0
 10
2.5
 20
117.1577347178242
 30
0.0
 11
597.5
 21
117.1577347178242
 31
0.0
  0
SOLID
  5
1773
  8
TEXT_COTE
 62
     0
 10
2.5
 20
117.5744013844909
 30
0.0
 11
2.5
 21
116.7410680511576
 31
0.0
 12
0.0000000000000011
 22
117.1577347178242
 32
0.0
 13
0.0000000000000011
 23
117.1577347178242
 33
0.0
  0
SOLID
  5
1774
  8
TEXT_COTE
 62
     0
 10
597.5
 20
117.5744013844909
 30
0.0
 11
597.5
 21
116.7410680511576
 31
0.0
 12
600.0
 22
117.1577347178242
 32
0.0
 13
600.0
 23
117.1577347178242
 33
0.0
  0
TEXT
  5
1786
  8
TEXT_COTE
 62
     0
 10
295.0
 20
114.608
 30
0.0
 40
2.5
  1
600
  0
POINT
  5
1776
  8
DEFPOINTS
 62
     0
 10
0.0
 20
100.0
 30
0.0
  0
POINT
  5
1777
  8
DEFPOINTS
 62
     0
 10
600.0
 20
100.0
 30
0.0
  0
POINT
  5
1778
  8
DEFPOINTS
 62
     0
 10
600.0
 20
117.1577347178242
 30
0.0
  0
ENDBLK
  5
110E
  8
0
  0
BLOCK
  8
0
  2
*D3
 70
     1
 10
0.0
 20
0.0
 30
0.0
  3
*D3
  1

  0
LINE
  5
1779
  8
TEXT_COTE
 62
     0
 10
-0.625
 20
0.0000000000000002
 30
0.0
 11
-16.37975398292884
 21
0.0000000000000046
 31
0.0
  0
LINE
  5
177A
  8
TEXT_COTE
 62
     0
 10
-0.625
 20
100.0
 30
0.0
 11
-16.379753982928818
 21
100.0
 31
0.0
  0
LINE
  5
177B
  8
TEXT_COTE
 62
     0
 10
-15.12975398292884
 20
2.5000000000000031
 30
0.0
 11
-15.12975398292882
 21
97.5
 31
0.0
  0
SOLID
  5
177C
  8
TEXT_COTE
 62
     0
 10
-15.546420649595509
 20
2.5000000000000031
 30
0.0
 11
-14.713087316262181
 21
2.5000000000000031
 31
0.0
 12
-15.12975398292884
 22
0.0000000000000043
 32
0.0
 13
-15.12975398292884
 23
0.0000000000000043
 33
0.0
  0
SOLID
  5
177D
  8
TEXT_COTE
 62
     0
 10
-15.54642064959549
 20
97.5
 30
0.0
 11
-14.71308731626215
 21
97.5
 31
0.0
 12
-15.12975398292882
 22
100.0
 32
0.0
 13
-15.12975398292882
 23
100.0
 33
0.0
  0
TEXT
  5
1787
  8
TEXT_COTE
 62
     0
 10
-22.004799999999999
 20
45.575000000000003
 30
0.0
 40
2.5
  1
100
  0
POINT
  5
177F
  8
DEFPOINTS
 62
     0
 10
0.0
 20
0.0
 30
0.0
  0
POINT
  5
1780
  8
DEFPOINTS
 62
     0
 10
0.0
 20
100.0
 30
0.0
  0
POINT
  5
1781
  8
DEFPOINTS
 62
     0
 10
-15.12975398292882
 20
100.0
 30
0.0
  0
ENDBLK
  5
111B
  8
0
  0
BLOCK
  8
0
  2
*U4
 70
     1
 10
0.0
 20
0.0
 30
0.0
  3
*U4
  1

  0
TEXT
  5
1783
  8
TEXT_COTE
 10
538.03254375540882
 20
92.692397230548295
 30
0.0
 40
5.0
  1
placaj 3 mm
  0
ENDBLK
  5
1785
  8
0
  0
BLOCK
  8
0
  2
*D5
 70
     1
 10
0.0
 20
0.0
 30
0.0
  3
*D5
  1

  0
LINE
  5
504F
  8
TEXT_COTE
 62
     0
 10
0.0
 20
100.625
 30
0.0
 11
0.0000000000000015
 21
124.1303506052799
 31
0.0
  0
LINE
  5
5050
  8
TEXT_COTE
 62
     0
 10
600.0
 20
100.625
 30
0.0
 11
600.0
 21
124.1303506052799
 31
0.0
  0
LINE
  5
5051
  8
TEXT_COTE
 62
     0
 10
2.5
 20
122.8803506052799
 30
0.0
 11
597.5
 21
122.8803506052799
 31
0.0
  0
SOLID
  5
5052
  8
TEXT_COTE
 62
     0
 10
2.5
 20
123.2970172719465
 30
0.0
 11
2.5
 21
122.4636839386132
 31
0.0
 12
0.0000000000000014
 22
122.8803506052799
 32
0.0
 13
0.0000000000000014
 23
122.8803506052799
 33
0.0
  0
SOLID
  5
5053
  8
TEXT_COTE
 62
     0
 10
597.5
 20
123.2970172719465
 30
0.0
 11
597.5
 21
122.4636839386132
 31
0.0
 12
600.0
 22
122.8803506052799
 32
0.0
 13
600.0
 23
122.8803506052799
 33
0.0
  0
TEXT
  5
5061
  8
TEXT_COTE
 62
     0
 10
295.0
 20
120.33
 30
0.0
 40
2.5
  1
600
  0
POINT
  5
5055
  8
DEFPOINTS
 62
     0
 10
0.0
 20
100.0
 30
0.0
  0
POINT
  5
5056
  8
DEFPOINTS
 62
     0
 10
600.0
 20
100.0
 30
0.0
  0
POINT
  5
5057
  8
DEFPOINTS
 62
     0
 10
600.0
 20
122.8803506052799
 30
0.0
  0
ENDBLK
  5
483E
  8
0
  0
BLOCK
  8
0
  2
*D6
 70
     1
 10
0.0
 20
0.0
 30
0.0
  3
*D6
  1

  0
LINE
  5
5058
  8
TEXT_COTE
 62
     0
 10
600.625
 20
-0.0000000000000002
 30
0.0
 11
622.42962054053226
 21
-0.0000000000000064
 31
0.0
  0
LINE
  5
5059
  8
TEXT_COTE
 62
     0
 10
600.625
 20
100.0
 30
0.0
 11
622.42962054053226
 21
100.0
 31
0.0
  0
LINE
  5
505A
  8
TEXT_COTE
 62
     0
 10
621.17962054053226
 20
2.499999999999992
 30
0.0
 11
621.17962054053226
 21
97.5
 31
0.0
  0
SOLID
  5
505B
  8
TEXT_COTE
 62
     0
 10
620.76295387386574
 20
2.4999999999999929
 30
0.0
 11
621.59628720719888
 21
2.499999999999992
 31
0.0
 12
621.17962054053226
 22
-0.000000000000006
 32
0.0
 13
621.17962054053226
 23
-0.000000000000006
 33
0.0
  0
SOLID
  5
505C
  8
TEXT_COTE
 62
     0
 10
620.76295387386574
 20
97.5
 30
0.0
 11
621.59628720719888
 21
97.5
 31
0.0
 12
621.17962054053226
 22
100.0
 32
0.0
 13
621.17962054053226
 23
100.0
 33
0.0
  0
TEXT
  5
5062
  8
TEXT_COTE
 62
     0
 10
614.30499999999995
 20
45.575000000000003
 30
0.0
 40
2.5
  1
100
  0
POINT
  5
505E
  8
DEFPOINTS
 62
     0
 10
600.0
 20
0.0
 30
0.0
  0
POINT
  5
505F
  8
DEFPOINTS
 62
     0
 10
600.0
 20
100.0
 30
0.0
  0
POINT
  5
5060
  8
DEFPOINTS
 62
     0
 10
621.17962054053226
 20
100.0
 30
0.0
  0
ENDBLK
  5
484B
  8
0
  0
BLOCK
  8
0
  2
*U7
 70
     1
 10
0.0
 20
0.0
 30
0.0
  3
*U7
  1

  0
TEXT
  5
504C
  8
TEXT_COTE
 10
545.91731482620173
 20
5.7455852187998726
 30
0.0
 40
5.0
  1
placaj 3 mm
  0
ENDBLK
  5
504E
  8
0
  0
BLOCK
  8
0
  2
*D8
 70
     1
 10
0.0
 20
0.0
 30
0.0
  3
*D8
  1

  0
LINE
  5
5523
  8
TEXT_COTE
 62
     0
 10
0.0
 20
100.625
 30
0.0
 11
0.0000000000000015
 21
124.1303506052799
 31
0.0
  0
LINE
  5
5524
  8
TEXT_COTE
 62
     0
 10
600.0
 20
100.625
 30
0.0
 11
600.0
 21
124.1303506052799
 31
0.0
  0
LINE
  5
5525
  8
TEXT_COTE
 62
     0
 10
2.5000000000000009
 20
122.8803506052799
 30
0.0
 11
597.5
 21
122.8803506052799
 31
0.0
  0
SOLID
  5
5526
  8
TEXT_COTE
 62
     0
 10
2.5000000000000009
 20
123.2970172719465
 30
0.0
 11
2.5000000000000009
 21
122.4636839386132
 31
0.0
 12
0.0000000000000014
 22
122.8803506052799
 32
0.0
 13
0.0000000000000014
 23
122.8803506052799
 33
0.0
  0
SOLID
  5
5527
  8
TEXT_COTE
 62
     0
 10
597.5
 20
123.2970172719465
 30
0.0
 11
597.5
 21
122.4636839386132
 31
0.0
 12
600.0
 22
122.8803506052799
 32
0.0
 13
600.0
 23
122.8803506052799
 33
0.0
  0
TEXT
  8
TEXT_COTE
  40
2.5
  5
5544
  62
0
  72
0
  71
0
 10
295.000
 20
120.330
 30
0.000000
  1
600
  0
POINT
  5
5529
  8
DEFPOINTS
 62
     0
 10
0.0
 20
100.0
 30
0.0
  0
POINT
  5
552A
  8
DEFPOINTS
 62
     0
 10
600.0
 20
100.0
 30
0.0
  0
POINT
  5
552B
  8
DEFPOINTS
 62
     0
 10
600.0
 20
122.8803506052799
 30
0.0
  0
ENDBLK
  5
5522
  8
0
  0
BLOCK
  8
0
  2
*D9
 70
     1
 10
0.0
 20
0.0
 30
0.0
  3
*D9
  1

  0
LINE
  5
552F
  8
TEXT_COTE
 62
     0
 10
600.625
 20
-0.0000000000000002
 30
0.0
 11
622.42962054053226
 21
-0.0000000000000064
 31
0.0
  0
LINE
  5
5530
  8
TEXT_COTE
 62
     0
 10
600.625
 20
100.0
 30
0.0
 11
622.42962054053226
 21
100.0
 31
0.0
  0
LINE
  5
5531
  8
TEXT_COTE
 62
     0
 10
621.17962054053226
 20
2.4999999999999929
 30
0.0
 11
621.17962054053226
 21
97.5
 31
0.0
  0
SOLID
  5
5532
  8
TEXT_COTE
 62
     0
 10
620.76295387386563
 20
2.4999999999999938
 30
0.0
 11
621.59628720719888
 21
2.4999999999999929
 31
0.0
 12
621.17962054053226
 22
-0.000000000000006
 32
0.0
 13
621.17962054053226
 23
-0.000000000000006
 33
0.0
  0
SOLID
  5
5533
  8
TEXT_COTE
 62
     0
 10
620.76295387386563
 20
97.5
 30
0.0
 11
621.59628720719888
 21
97.5
 31
0.0
 12
621.17962054053226
 22
100.0
 32
0.0
 13
621.17962054053226
 23
100.0
 33
0.0
  0
TEXT
  8
TEXT_COTE
  40
2.5
  5
5545
  62
0
  72
0
  71
0
 10
614.305
 20
45.5750
 30
0.000000
  1
100
  0
POINT
  5
5535
  8
DEFPOINTS
 62
     0
 10
600.0
 20
0.0
 30
0.0
  0
POINT
  5
5536
  8
DEFPOINTS
 62
     0
 10
600.0
 20
100.0
 30
0.0
  0
POINT
  5
5537
  8
DEFPOINTS
 62
     0
 10
621.17962054053226
 20
100.0
 30
0.0
  0
ENDBLK
  5
552E
  8
0
  0
ENDSEC
  0
SECTION
  2
ENTITIES
  0
LINE
  5
1815
  8
0
 10
600.0
 20
0.0
 30
0.0
 11
600.0
 21
100.0
 31
0.0
  0
LINE
  5
1816
  8
0
 10
600.0
 20
0.0
 30
0.0
 11
0.0
 21
0.0
 31
0.0
  0
LINE
  5
1817
  8
0
 10
0.0
 20
100.0
 30
0.0
 11
0.0
 21
0.0
 31
0.0
  0
LINE
  5
1818
  8
0
 10
600.0
 20
100.0
 30
0.0
 11
0.0
 21
100.0
 31
0.0
  0
ARC
  5
1899
  8
0
 10
192.25757164726639
 20
50.891602216256331
 30
0.0
 40
1.55
 50
180.0000050000005
 51
0.0
  0
ARC
  5
189A
  8
0
 10
192.25757164726639
 20
50.891602216256331
 30
0.0
 40
1.55
 50
0.0
 51
180.0000050000005
  0
ARC
  5
189B
  8
0
 10
150.22822864726641
 20
51.938508216256302
 30
0.0
 40
1.55
 50
179.9999949999995
 51
0.0
  0
ARC
  5
189C
  8
0
 10
150.22822864726641
 20
51.938508216256302
 30
0.0
 40
1.55
 50
0.0
 51
179.9999949999995
  0
ARC
  5
189D
  8
0
 10
12.709639647266471
 20
20.28050321625631
 30
0.0
 40
7.5
 50
120.00000299999959
 51
239.99999700000041
  0
POLYLINE
  5
189E
  8
0
 66
     1
 10
0.0
 20
0.0
 30
0.0
  0
VERTEX
  5
5109
  8
0
 10
8.9596396472664708
 20
13.785310216256329
 30
0.0
  0
VERTEX
  5
510A
  8
0
 10
10.00973864726647
 20
13.21547021625633
 30
0.0
  0
VERTEX
  5
510B
  8
0
 10
11.145711647266459
 20
12.66880121625632
 30
0.0
  0
VERTEX
  5
510C
  8
0
 10
12.367186647266459
 20
12.1452342162563
 30
0.0
  0
VERTEX
  5
510D
  8
0
 10
13.67355064726647
 20
11.64464721625631
 30
0.0
  0
VERTEX
  5
510E
  8
0
 10
14.56605864726647
 20
11.3321082162563
 30
0.0
  0
VERTEX
  5
510F
  8
0
 10
15.493663647266461
 20
11.0291072162563
 30
0.0
  0
VERTEX
  5
5110
  8
0
 10
16.51021564726647
 20
10.71965121625635
 30
0.0
  0
VERTEX
  5
5111
  8
0
 10
17.565074647266471
 20
10.420670216256321
 30
0.0
  0
VERTEX
  5
5112
  8
0
 10
19.727740647266469
 20
9.8680582162563173
 30
0.0
  0
VERTEX
  5
5113
  8
0
 10
20.952853647266469
 20
9.5859842162562892
 30
0.0
  0
VERTEX
  5
5114
  8
0
 10
22.217944647266481
 20
9.3150032162563434
 30
0.0
  0
VERTEX
  5
5115
  8
0
 10
23.635104647266481
 20
9.03335721625632
 30
0.0
  0
VERTEX
  5
5116
  8
0
 10
25.097506647266471
 20
8.7644052162563071
 30
0.0
  0
VERTEX
  5
5117
  8
0
 10
28.030692647266481
 20
8.2824642162563578
 30
0.0
  0
VERTEX
  5
5118
  8
0
 10
31.119025647266479
 20
7.8450332162562972
 30
0.0
  0
VERTEX
  5
5119
  8
0
 10
33.98745264726648
 20
7.4921582162563132
 30
0.0
  0
VERTEX
  5
511A
  8
0
 10
36.965094647266483
 20
7.1717692162563349
 30
0.0
  0
VERTEX
  5
511B
  8
0
 10
40.045092647266472
 20
6.8824852162563266
 30
0.0
  0
VERTEX
  5
511C
  8
0
 10
42.417964647266459
 20
6.6850752162563349
 30
0.0
  0
VERTEX
  5
511D
  8
0
 10
44.841265647266461
 20
6.5037162162562918
 30
0.0
  0
VERTEX
  5
511E
  8
0
 10
47.589068647266458
 20
6.3202752162563343
 30
0.0
  0
VERTEX
  5
511F
  8
0
 10
50.390704647266467
 20
6.1549622162563082
 30
0.0
  0
VERTEX
  5
5120
  8
0
 10
56.137133647266467
 20
5.8750772162563294
 30
0.0
  0
VERTEX
  5
5121
  8
0
 10
62.043368647266483
 20
5.6566022162563172
 30
0.0
  0
VERTEX
  5
5122
  8
0
 10
66.282092647266467
 20
5.5353942162563481
 30
0.0
  0
VERTEX
  5
5123
  8
0
 10
70.568255647266454
 20
5.4382872162562972
 30
0.0
  0
VERTEX
  5
5124
  8
0
 10
75.443774647266451
 20
5.3543632162563313
 30
0.0
  0
VERTEX
  5
5125
  8
0
 10
80.344378647266467
 20
5.2940152162562972
 30
0.0
  0
VERTEX
  5
5126
  8
0
 10
86.515399647266435
 20
5.245995216256345
 30
0.0
  0
VERTEX
  5
5127
  8
0
 10
92.662936647266434
 20
5.2225962162563047
 30
0.0
  0
VERTEX
  5
5128
  8
0
 10
103.9702486472664
 20
5.2227032162563187
 30
0.0
  0
VERTEX
  5
5129
  8
0
 10
114.1396666472664
 20
5.2471322162563183
 30
0.0
  0
VERTEX
  5
512A
  8
0
 10
132.7096436472664
 20
5.2805032162563048
 30
0.0
  0
SEQEND
  5
512B
  8
0
  0
LINE
  5
189F
  8
0
 10
132.7096436472664
 20
5.2805032162563048
 30
0.0
 11
176.5023836472663
 21
5.2805032162563048
 31
0.0
  0
LINE
  5
18A0
  8
0
 10
176.5023836472663
 20
5.2805032162563048
 30
0.0
 11
176.5023836472663
 21
10.280503216256299
 31
0.0
  0
LINE
  5
18A1
  8
0
 10
176.5023836472663
 20
10.280503216256299
 30
0.0
 11
207.70964364726649
 21
10.280503216256299
 31
0.0
  0
LINE
  5
18A2
  8
0
 10
207.70964364726649
 20
10.280503216256299
 30
0.0
 11
207.70964364726649
 21
12.280503216256299
 31
0.0
  0
LINE
  5
18A3
  8
0
 10
207.70964364726649
 20
12.280503216256299
 30
0.0
 11
259.70962864726641
 21
12.280503216256299
 31
0.0
  0
LINE
  5
18A4
  8
0
 10
259.70962864726641
 20
12.280503216256299
 30
0.0
 11
259.70962864726641
 21
18.28050321625631
 31
0.0
  0
LINE
  5
18A5
  8
0
 10
259.70962864726641
 20
18.28050321625631
 30
0.0
 11
222.70964364726649
 21
18.28050321625631
 31
0.0
  0
LINE
  5
18A6
  8
0
 10
222.70964364726649
 20
18.28050321625631
 30
0.0
 11
222.70964364726649
 21
20.28050321625631
 31
0.0
  0
LINE
  5
18A7
  8
0
 10
222.70964364726649
 20
20.28050321625631
 30
0.0
 11
260.86987664726638
 21
20.28050321625631
 31
0.0
  0
ARC
  5
18A8
  8
0
 10
260.86987664726638
 20
30.28050321625631
 30
0.0
 40
10.0
 50
149.99999700000151
 51
269.99999699999989
  0
LINE
  5
18A9
  8
0
 10
252.2096286472665
 20
35.280503216256307
 30
0.0
 11
254.6657746472664
 21
39.534669216256361
 31
0.0
  0
ARC
  5
18AA
  8
0
 10
252.66974164726651
 20
40.687051216256293
 30
0.0
 40
2.304799
 50
329.99999899999932
 51
73.084526999999994
  0
LINE
  5
18AB
  8
0
 10
253.3403656472664
 20
42.89213621625629
 30
0.0
 11
252.98639264726651
 21
42.999452216256309
 31
0.0
  0
ARC
  5
18AC
  8
0
 10
177.03906564726651
 20
-207.49610778374361
 30
0.0
 40
261.75493699999998
 50
73.13330800000054
 51
74.744665999999313
  0
POLYLINE
  5
18AD
  8
0
 66
     1
 10
0.0
 20
0.0
 30
0.0
  0
VERTEX
  5
512C
  8
0
 10
245.9121126472665
 20
45.034699216256293
 30
0.0
  0
VERTEX
  5
512D
  8
0
 10
242.7078886472664
 20
45.888810216256331
 30
0.0
  0
VERTEX
  5
512E
  8
0
 10
239.49716464726649
 20
46.713738216256331
 30
0.0
  0
VERTEX
  5
512F
  8
0
 10
234.8579596472664
 20
47.868501216256277
 30
0.0
  0
VERTEX
  5
5130
  8
0
 10
225.57590064726639
 20
50.153161216256287
 30
0.0
  0
VERTEX
  5
5131
  8
0
 10
220.94539164726649
 20
51.275590216256319
 30
0.0
  0
VERTEX
  5
5132
  8
0
 10
215.8387486472665
 20
52.476090216256353
 30
0.0
  0
VERTEX
  5
5133
  8
0
 10
213.28435064726639
 20
53.04925621625631
 30
0.0
  0
VERTEX
  5
5134
  8
0
 10
209.8306766472665
 20
53.783387216256287
 30
0.0
  0
VERTEX
  5
5135
  8
0
 10
206.36944864726649
 20
54.464600216256322
 30
0.0
  0
VERTEX
  5
5136
  8
0
 10
202.6887086472664
 20
55.127572216256333
 30
0.0
  0
VERTEX
  5
5137
  8
0
 10
199.0024296472665
 20
55.737870216256333
 30
0.0
  0
VERTEX
  5
5138
  8
0
 10
194.3609036472665
 20
56.44918921625635
 30
0.0
  0
VERTEX
  5
5139
  8
0
 10
189.7245056472664
 20
57.094880216256342
 30
0.0
  0
VERTEX
  5
513A
  8
0
 10
187.39709764726641
 20
57.391923216256309
 30
0.0
  0
VERTEX
  5
513B
  8
0
 10
185.05989364726639
 20
57.670274216256303
 30
0.0
  0
VERTEX
  5
513C
  8
0
 10
181.56851564726639
 20
58.044694216256339
 30
0.0
  0
VERTEX
  5
513D
  8
0
 10
178.08253764726629
 20
58.365334216256308
 30
0.0
  0
VERTEX
  5
513E
  8
0
 10
174.5818516472664
 20
58.633912216256292
 30
0.0
  0
VERTEX
  5
513F
  8
0
 10
172.70964364726629
 20
58.755555216256312
 30
0.0
  0
SEQEND
  5
5140
  8
0
  0
POLYLINE
  5
18AE
  8
0
 66
     1
 10
0.0
 20
0.0
 30
0.0
  0
VERTEX
  5
5141
  8
0
 10
172.70964364726629
 20
58.755555216256312
 30
0.0
  0
VERTEX
  5
5142
  8
0
 10
167.14781464726639
 20
59.053651216256291
 30
0.0
  0
VERTEX
  5
5143
  8
0
 10
161.56506664726641
 20
59.273591216256357
 30
0.0
  0
VERTEX
  5
5144
  8
0
 10
155.9622686472664
 20
59.414887216256311
 30
0.0
  0
VERTEX
  5
5145
  8
0
 10
153.14912764726651
 20
59.455872216256353
 30
0.0
  0
VERTEX
  5
5146
  8
0
 10
150.3315156472664
 20
59.476792216256278
 30
0.0
  0
VERTEX
  5
5147
  8
0
 10
147.51900064726641
 20
59.477570216256368
 30
0.0
  0
VERTEX
  5
5148
  8
0
 10
144.7025636472664
 20
59.458131216256326
 30
0.0
  0
VERTEX
  5
5149
  8
0
 10
140.9355656472664
 20
59.400330216256279
 30
0.0
  0
VERTEX
  5
514A
  8
0
 10
137.1629056472664
 20
59.305726216256282
 30
0.0
  0
VERTEX
  5
514B
  8
0
 10
133.38548564726651
 20
59.173829216256287
 30
0.0
  0
VERTEX
  5
514C
  8
0
 10
128.3431426472664
 20
58.939011216256283
 30
0.0
  0
VERTEX
  5
514D
  8
0
 10
123.2963746472665
 20
58.635560216256302
 30
0.0
  0
VERTEX
  5
514E
  8
0
 10
118.24777564726639
 20
58.262025216256283
 30
0.0
  0
VERTEX
  5
514F
  8
0
 10
113.20006164726639
 20
57.816850216256277
 30
0.0
  0
VERTEX
  5
5150
  8
0
 10
108.1561156472665
 20
57.298417216256318
 30
0.0
  0
VERTEX
  5
5151
  8
0
 10
103.1189306472664
 20
56.705018216256342
 30
0.0
  0
VERTEX
  5
5152
  8
0
 10
98.091555647266446
 20
56.034913216256307
 30
0.0
  0
VERTEX
  5
5153
  8
0
 10
95.575061647266438
 20
55.669419216256287
 30
0.0
  0
VERTEX
  5
5154
  8
0
 10
93.062228647266465
 20
55.283967216256322
 30
0.0
  0
VERTEX
  5
5155
  8
0
 10
90.568347647266506
 20
54.880784216256302
 30
0.0
  0
VERTEX
  5
5156
  8
0
 10
88.078891647266516
 20
54.457429216256287
 30
0.0
  0
VERTEX
  5
5157
  8
0
 10
83.410525647266454
 20
53.605805216256329
 30
0.0
  0
VERTEX
  5
5158
  8
0
 10
78.761828647266483
 20
52.680512216256332
 30
0.0
  0
VERTEX
  5
5159
  8
0
 10
76.418078647266483
 20
52.18380121625632
 30
0.0
  0
VERTEX
  5
515A
  8
0
 10
74.080378647266485
 20
51.667664216256291
 30
0.0
  0
VERTEX
  5
515B
  8
0
 10
71.803927647266477
 20
51.144746216256351
 30
0.0
  0
VERTEX
  5
515C
  8
0
 10
69.533869647266471
 20
50.602952216256313
 30
0.0
  0
VERTEX
  5
515D
  8
0
 10
65.720095647266476
 20
49.64579121625632
 30
0.0
  0
VERTEX
  5
515E
  8
0
 10
61.926799647266463
 20
48.633584216256331
 30
0.0
  0
VERTEX
  5
515F
  8
0
 10
58.155398647266473
 20
47.565545216256332
 30
0.0
  0
VERTEX
  5
5160
  8
0
 10
54.407229647266462
 20
46.440896216256313
 30
0.0
  0
VERTEX
  5
5161
  8
0
 10
50.683612647266472
 20
45.258897216256337
 30
0.0
  0
VERTEX
  5
5162
  8
0
 10
46.985789647266458
 20
44.018853216256332
 30
0.0
  0
VERTEX
  5
5163
  8
0
 10
43.022475647266482
 20
42.613618216256327
 30
0.0
  0
VERTEX
  5
5164
  8
0
 10
39.092025647266468
 20
41.139092216256351
 30
0.0
  0
VERTEX
  5
5165
  8
0
 10
35.19572764726648
 20
39.594544216256338
 30
0.0
  0
VERTEX
  5
5166
  8
0
 10
31.334761647266479
 20
37.979310216256287
 30
0.0
  0
VERTEX
  5
5167
  8
0
 10
29.41785764726648
 20
37.14499021625636
 30
0.0
  0
VERTEX
  5
5168
  8
0
 10
27.51017364726647
 20
36.292787216256329
 30
0.0
  0
VERTEX
  5
5169
  8
0
 10
24.351466647266481
 20
34.832513216256302
 30
0.0
  0
VERTEX
  5
516A
  8
0
 10
21.219115647266481
 20
33.322122216256339
 30
0.0
  0
VERTEX
  5
516B
  8
0
 10
18.11349764726647
 20
31.761392216256301
 30
0.0
  0
VERTEX
  5
516C
  8
0
 10
15.034911647266471
 20
30.150155216256341
 30
0.0
  0
VERTEX
  5
516D
  8
0
 10
11.98358064726648
 20
28.48828221625633
 30
0.0
  0
VERTEX
  5
516E
  8
0
 10
8.9596396472664708
 20
26.77569721625634
 30
0.0
  0
SEQEND
  5
516F
  8
0
  0
POLYLINE
  5
18AF
  8
0
 66
     1
 10
0.0
 20
0.0
 30
0.0
  0
VERTEX
  5
5170
  8
0
 10
26.110465647266469
 20
16.468018216256318
 30
0.0
  0
VERTEX
  5
5171
  8
0
 10
31.15194664726647
 20
16.194093216256299
 30
0.0
  0
VERTEX
  5
5172
  8
0
 10
36.331927647266468
 20
15.9688352162563
 30
0.0
  0
VERTEX
  5
5173
  8
0
 10
40.195197647266468
 20
15.8287512162563
 30
0.0
  0
VERTEX
  5
5174
  8
0
 10
44.079257647266459
 20
15.7075132162563
 30
0.0
  0
VERTEX
  5
5175
  8
0
 10
48.791095647266467
 20
15.583115216256321
 30
0.0
  0
VERTEX
  5
5176
  8
0
 10
53.481173647266473
 20
15.4811942162563
 30
0.0
  0
VERTEX
  5
5177
  8
0
 10
61.912326647266461
 20
15.348702216256349
 30
0.0
  0
VERTEX
  5
5178
  8
0
 10
70.053729647266465
 20
15.2851192162563
 30
0.0
  0
VERTEX
  5
5179
  8
0
 10
72.709643647266461
 20
15.280503216256299
 30
0.0
  0
SEQEND
  5
517A
  8
0
  0
LINE
  5
18B0
  8
0
 10
72.709643647266461
 20
15.280503216256299
 30
0.0
 11
85.209643647266461
 21
15.280503216256299
 31
0.0
  0
ARC
  5
18B1
  8
0
 10
85.209643647266461
 20
17.780503216256299
 30
0.0
 40
2.5
 50
269.99999699999989
 51
0.0
  0
LINE
  5
18B2
  8
0
 10
87.709643647266446
 20
17.780503216256299
 30
0.0
 11
87.709643647266446
 21
49.315034216256322
 31
0.0
  0
POLYLINE
  5
18B3
  8
0
 66
     1
 10
0.0
 20
0.0
 30
0.0
  0
VERTEX
  5
517B
  8
0
 10
87.709643647266446
 20
49.315034216256322
 30
0.0
  0
VERTEX
  5
517C
  8
0
 10
83.767535647266513
 20
48.583207216256312
 30
0.0
  0
VERTEX
  5
517D
  8
0
 10
79.838908647266507
 20
47.797494216256318
 30
0.0
  0
VERTEX
  5
517E
  8
0
 10
75.33715364726649
 20
46.825425216256278
 30
0.0
  0
VERTEX
  5
517F
  8
0
 10
70.856890647266454
 20
45.77893221625628
 30
0.0
  0
VERTEX
  5
5180
  8
0
 10
68.625460647266465
 20
45.227250216256323
 30
0.0
  0
VERTEX
  5
5181
  8
0
 10
66.400195647266486
 20
44.656342216256327
 30
0.0
  0
VERTEX
  5
5182
  8
0
 10
63.074465647266457
 20
43.763505216256313
 30
0.0
  0
VERTEX
  5
5183
  8
0
 10
59.764147647266462
 20
42.82628021625635
 30
0.0
  0
VERTEX
  5
5184
  8
0
 10
56.470210647266512
 20
41.844041216256301
 30
0.0
  0
VERTEX
  5
5185
  8
0
 10
53.193606647266471
 20
40.816163216256307
 30
0.0
  0
VERTEX
  5
5186
  8
0
 10
49.394068647266472
 20
39.558503216256327
 30
0.0
  0
VERTEX
  5
5187
  8
0
 10
45.620913647266462
 20
38.237031216256298
 30
0.0
  0
VERTEX
  5
5188
  8
0
 10
41.875609647266486
 20
36.850923216256319
 30
0.0
  0
VERTEX
  5
5189
  8
0
 10
38.159575647266479
 20
35.399445216256311
 30
0.0
  0
VERTEX
  5
518A
  8
0
 10
34.474177647266472
 20
33.881944216256329
 30
0.0
  0
VERTEX
  5
518B
  8
0
 10
30.820712647266479
 20
32.29783021625633
 30
0.0
  0
VERTEX
  5
518C
  8
0
 10
27.200381647266479
 20
30.646661216256351
 30
0.0
  0
VERTEX
  5
518D
  8
0
 10
23.614291647266469
 20
28.928063216256309
 30
0.0
  0
SEQEND
  5
518E
  8
0
  0
ARC
  5
18B4
  8
0
 10
26.51135964726647
 20
23.028390216256309
 30
0.0
 40
6.572608999999999
 50
116.1535960000005
 51
266.50309100000032
  0
ARC
  5
18B5
  8
0
 10
100.2096436472664
 20
17.780503216256299
 30
0.0
 40
2.5
 50
180.0000050000005
 51
269.99999699999989
  0
LINE
  5
18B6
  8
0
 10
100.2096436472664
 20
15.280503216256299
 30
0.0
 11
155.2096436472664
 21
15.280503216256299
 31
0.0
  0
ARC
  5
18B7
  8
0
 10
155.2096436472664
 20
17.780503216256299
 30
0.0
 40
2.5
 50
269.99999699999989
 51
0.0
  0
LINE
  5
18B8
  8
0
 10
157.7096436472664
 20
17.780503216256299
 30
0.0
 11
157.7096436472664
 21
39.112412216256303
 31
0.0
  0
ARC
  5
18B9
  8
0
 10
155.2096436472664
 20
39.112412216256303
 30
0.0
 40
2.5
 50
0.0
 51
85.999998000000176
  0
LINE
  5
18BA
  8
0
 10
155.38403664726641
 20
41.606316216256339
 30
0.0
 11
130.03525064726651
 21
43.378877216256328
 31
0.0
  0
ARC
  5
18BB
  8
0
 10
130.2096436472664
 20
45.872788216256311
 30
0.0
 40
2.5
 50
179.9999949999995
 51
266.00000000000028
  0
LINE
  5
18BC
  8
0
 10
127.7096436472664
 20
45.872788216256311
 30
0.0
 11
127.7096436472664
 21
51.244157216256319
 31
0.0
  0
ARC
  5
18BD
  8
0
 10
125.2096436472664
 20
51.244157216256319
 30
0.0
 40
2.5
 50
0.0
 51
95.679782999999844
  0
LINE
  5
18BE
  8
0
 10
124.9622226472665
 20
53.731881216256284
 30
0.0
 11
99.962222647266486
 21
51.245454216256341
 31
0.0
  0
ARC
  5
18BF
  8
0
 10
100.2096436472664
 20
48.75772921625628
 30
0.0
 40
2.5
 50
95.679782999999844
 51
180.0000050000005
  0
LINE
  5
18C0
  8
0
 10
97.709643647266446
 20
48.75772921625628
 30
0.0
 11
97.709643647266446
 21
17.780503216256299
 31
0.0
  0
LINE
  5
18C1
  8
0
 10
242.42218364726651
 20
35.520020216256292
 30
0.0
 11
180.38403664726641
 21
39.858148216256332
 31
0.0
  0
ARC
  5
18C2
  8
0
 10
180.20964364726629
 20
37.364236216256302
 30
0.0
 40
2.5
 50
85.999998000000176
 51
180.0000050000005
  0
LINE
  5
18C3
  8
0
 10
177.7096436472664
 20
37.364236216256302
 30
0.0
 11
177.7096436472664
 21
17.780503216256299
 31
0.0
  0
ARC
  5
18C4
  8
0
 10
180.20964364726629
 20
17.780503216256299
 30
0.0
 40
2.5
 50
180.0000050000005
 51
269.99999699999989
  0
LINE
  5
18C5
  8
0
 10
180.20964364726629
 20
15.280503216256299
 30
0.0
 11
215.2096436472664
 21
15.280503216256299
 31
0.0
  0
ARC
  5
18C6
  8
0
 10
215.2096436472664
 20
17.780503216256299
 30
0.0
 40
2.5
 50
269.99999699999989
 51
0.0
  0
LINE
  5
18C7
  8
0
 10
217.70964364726649
 20
17.780503216256299
 30
0.0
 11
217.70964364726649
 21
22.78050321625631
 31
0.0
  0
ARC
  5
18C8
  8
0
 10
220.20964364726649
 20
22.78050321625631
 30
0.0
 40
2.5
 50
90.000003000000149
 51
180.0000050000005
  0
LINE
  5
18C9
  8
0
 10
220.20964364726649
 20
25.28050321625631
 30
0.0
 11
239.21925664726649
 21
25.28050321625631
 31
0.0
  0
ARC
  5
18CA
  8
0
 10
239.21925664726649
 20
27.78050321625631
 30
0.0
 40
2.5
 50
269.99999699999989
 51
329.99999899999932
  0
LINE
  5
18CB
  8
0
 10
241.38431064726649
 20
26.53050321625631
 30
0.0
 11
244.4128756472665
 21
31.776109216256319
 31
0.0
  0
ARC
  5
18CC
  8
0
 10
242.24780564726649
 20
33.026109216256323
 30
0.0
 40
2.5
 50
329.99999899999932
 51
85.999998000000176
  0
ARC
  5
18CD
  8
0
 10
448.9908911075151
 20
51.158464147518821
 30
0.0
 40
1.55
 50
180.0000050000005
 51
0.0
  0
ARC
  5
18CE
  8
0
 10
448.9908911075151
 20
51.158464147518821
 30
0.0
 40
1.55
 50
0.0
 51
180.0000050000005
  0
ARC
  5
18CF
  8
0
 10
406.96154810751523
 20
52.205370147518792
 30
0.0
 40
1.55
 50
179.9999949999995
 51
0.0
  0
ARC
  5
18D0
  8
0
 10
406.96154810751523
 20
52.205370147518792
 30
0.0
 40
1.55
 50
0.0
 51
179.9999949999995
  0
ARC
  5
18D1
  8
0
 10
269.44295910751532
 20
20.5473651475188
 30
0.0
 40
7.5
 50
120.00000300000011
 51
239.99999699999989
  0
POLYLINE
  5
18D2
  8
0
 66
     1
 10
0.0
 20
0.0
 30
0.0
  0
VERTEX
  5
518F
  8
0
 10
265.69295910751532
 20
14.05217214751883
 30
0.0
  0
VERTEX
  5
5190
  8
0
 10
266.74305810751531
 20
13.48233214751883
 30
0.0
  0
VERTEX
  5
5191
  8
0
 10
267.87903110751529
 20
12.93566314751882
 30
0.0
  0
VERTEX
  5
5192
  8
0
 10
269.10050610751529
 20
12.41209614751881
 30
0.0
  0
VERTEX
  5
5193
  8
0
 10
270.4068701075152
 20
11.91150914751881
 30
0.0
  0
VERTEX
  5
5194
  8
0
 10
271.29937810751528
 20
11.5989701475188
 30
0.0
  0
VERTEX
  5
5195
  8
0
 10
272.22698310751531
 20
11.2959691475188
 30
0.0
  0
VERTEX
  5
5196
  8
0
 10
273.2435351075153
 20
10.986513147518851
 30
0.0
  0
VERTEX
  5
5197
  8
0
 10
274.29839410751532
 20
10.687532147518819
 30
0.0
  0
VERTEX
  5
5198
  8
0
 10
276.46106010751532
 20
10.134920147518811
 30
0.0
  0
VERTEX
  5
5199
  8
0
 10
277.68617310751529
 20
9.8528461475187878
 30
0.0
  0
VERTEX
  5
519A
  8
0
 10
278.95126410751533
 20
9.5818651475188403
 30
0.0
  0
VERTEX
  5
519B
  8
0
 10
280.3684241075153
 20
9.3002191475188152
 30
0.0
  0
VERTEX
  5
519C
  8
0
 10
281.83082610751518
 20
9.0312671475188022
 30
0.0
  0
VERTEX
  5
519D
  8
0
 10
284.76401210751533
 20
8.5493261475188547
 30
0.0
  0
VERTEX
  5
519E
  8
0
 10
287.8523451075153
 20
8.1118951475187941
 30
0.0
  0
VERTEX
  5
519F
  8
0
 10
290.7207721075153
 20
7.7590201475188092
 30
0.0
  0
VERTEX
  5
51A0
  8
0
 10
293.6984141075153
 20
7.4386311475188309
 30
0.0
  0
VERTEX
  5
51A1
  8
0
 10
296.77841210751529
 20
7.1493471475188244
 30
0.0
  0
VERTEX
  5
51A2
  8
0
 10
299.15128410751532
 20
6.9519371475188318
 30
0.0
  0
VERTEX
  5
51A3
  8
0
 10
301.5745851075153
 20
6.7705781475187887
 30
0.0
  0
VERTEX
  5
51A4
  8
0
 10
304.32238810751528
 20
6.5871371475188312
 30
0.0
  0
VERTEX
  5
51A5
  8
0
 10
307.12402410751531
 20
6.4218241475188051
 30
0.0
  0
VERTEX
  5
51A6
  8
0
 10
312.87045310751517
 20
6.1419391475188254
 30
0.0
  0
VERTEX
  5
51A7
  8
0
 10
318.77668810751533
 20
5.9234641475188141
 30
0.0
  0
VERTEX
  5
51A8
  8
0
 10
323.01541210751532
 20
5.802256147518845
 30
0.0
  0
VERTEX
  5
51A9
  8
0
 10
327.3015751075153
 20
5.7051491475187941
 30
0.0
  0
VERTEX
  5
51AA
  8
0
 10
332.17709410751519
 20
5.6212251475188282
 30
0.0
  0
VERTEX
  5
51AB
  8
0
 10
337.07769810751518
 20
5.5608771475187941
 30
0.0
  0
VERTEX
  5
51AC
  8
0
 10
343.24871910751529
 20
5.5128571475188419
 30
0.0
  0
VERTEX
  5
51AD
  8
0
 10
349.39625610751528
 20
5.4894581475188033
 30
0.0
  0
VERTEX
  5
51AE
  8
0
 10
360.7035681075152
 20
5.4895651475188174
 30
0.0
  0
VERTEX
  5
51AF
  8
0
 10
370.8729861075152
 20
5.5139941475188152
 30
0.0
  0
VERTEX
  5
51B0
  8
0
 10
389.44296310751531
 20
5.5473651475188017
 30
0.0
  0
SEQEND
  5
51B1
  8
0
  0
LINE
  5
18D3
  8
0
 10
389.44296310751531
 20
5.5473651475188017
 30
0.0
 11
433.23570310751518
 21
5.5473651475188017
 31
0.0
  0
LINE
  5
18D4
  8
0
 10
433.23570310751518
 20
5.5473651475188017
 30
0.0
 11
433.23570310751518
 21
10.5473651475188
 31
0.0
  0
LINE
  5
18D5
  8
0
 10
433.23570310751518
 20
10.5473651475188
 30
0.0
 11
464.4429631075152
 21
10.5473651475188
 31
0.0
  0
LINE
  5
18D6
  8
0
 10
464.4429631075152
 20
10.5473651475188
 30
0.0
 11
464.4429631075152
 21
12.5473651475188
 31
0.0
  0
LINE
  5
18D7
  8
0
 10
464.4429631075152
 20
12.5473651475188
 30
0.0
 11
516.44294810751524
 21
12.5473651475188
 31
0.0
  0
LINE
  5
18D8
  8
0
 10
516.44294810751524
 20
12.5473651475188
 30
0.0
 11
516.44294810751524
 21
18.5473651475188
 31
0.0
  0
LINE
  5
18D9
  8
0
 10
516.44294810751524
 20
18.5473651475188
 30
0.0
 11
479.44296310751531
 21
18.5473651475188
 31
0.0
  0
LINE
  5
18DA
  8
0
 10
479.44296310751531
 20
18.5473651475188
 30
0.0
 11
479.44296310751531
 21
20.5473651475188
 31
0.0
  0
LINE
  5
18DB
  8
0
 10
479.44296310751531
 20
20.5473651475188
 30
0.0
 11
517.60319610751515
 21
20.5473651475188
 31
0.0
  0
ARC
  5
18DC
  8
0
 10
517.60319610751515
 20
30.5473651475188
 30
0.0
 40
10.0
 50
149.99999700000129
 51
269.9999969999991
  0
LINE
  5
18DD
  8
0
 10
508.94294810751518
 20
35.547365147518803
 30
0.0
 11
511.39909410751511
 21
39.801531147518851
 31
0.0
  0
ARC
  5
18DE
  8
0
 10
509.40306110751533
 20
40.95391314751879
 30
0.0
 40
2.304799
 50
329.99999899999932
 51
73.084526999999994
  0
LINE
  5
18DF
  8
0
 10
510.07368510751519
 20
43.158998147518787
 30
0.0
 11
509.71971210751519
 21
43.266314147518813
 31
0.0
  0
ARC
  5
18E0
  8
0
 10
433.77238510751528
 20
-207.2292458524812
 30
0.0
 40
261.75493699999998
 50
73.13330800000054
 51
74.744666000000464
  0
POLYLINE
  5
18E1
  8
0
 66
     1
 10
0.0
 20
0.0
 30
0.0
  0
VERTEX
  5
51B2
  8
0
 10
502.64543210751521
 20
45.301561147518782
 30
0.0
  0
VERTEX
  5
51B3
  8
0
 10
499.44120810751519
 20
46.155672147518807
 30
0.0
  0
VERTEX
  5
51B4
  8
0
 10
496.23048410751528
 20
46.980600147518807
 30
0.0
  0
VERTEX
  5
51B5
  8
0
 10
491.59127910751511
 20
48.135363147518781
 30
0.0
  0
VERTEX
  5
51B6
  8
0
 10
482.30922010751522
 20
50.420023147518791
 30
0.0
  0
VERTEX
  5
51B7
  8
0
 10
477.6787111075152
 20
51.542452147518809
 30
0.0
  0
VERTEX
  5
51B8
  8
0
 10
472.57206810751512
 20
52.742952147518857
 30
0.0
  0
VERTEX
  5
51B9
  8
0
 10
470.0176701075153
 20
53.3161181475188
 30
0.0
  0
VERTEX
  5
51BA
  8
0
 10
466.56399610751521
 20
54.050249147518798
 30
0.0
  0
VERTEX
  5
51BB
  8
0
 10
463.1027681075152
 20
54.731462147518812
 30
0.0
  0
VERTEX
  5
51BC
  8
0
 10
459.4220281075153
 20
55.394434147518822
 30
0.0
  0
VERTEX
  5
51BD
  8
0
 10
455.73574910751512
 20
56.004732147518823
 30
0.0
  0
VERTEX
  5
51BE
  8
0
 10
451.09422310751512
 20
56.71605114751884
 30
0.0
  0
VERTEX
  5
51BF
  8
0
 10
446.4578251075153
 20
57.361742147518832
 30
0.0
  0
VERTEX
  5
51C0
  8
0
 10
444.13041710751509
 20
57.658785147518813
 30
0.0
  0
VERTEX
  5
51C1
  8
0
 10
441.79321310751521
 20
57.937136147518792
 30
0.0
  0
VERTEX
  5
51C2
  8
0
 10
438.30183510751522
 20
58.311556147518843
 30
0.0
  0
VERTEX
  5
51C3
  8
0
 10
434.81585710751528
 20
58.632196147518819
 30
0.0
  0
VERTEX
  5
51C4
  8
0
 10
431.3151711075152
 20
58.900774147518788
 30
0.0
  0
VERTEX
  5
51C5
  8
0
 10
429.44296310751531
 20
59.022417147518787
 30
0.0
  0
SEQEND
  5
51C6
  8
0
  0
POLYLINE
  5
18E2
  8
0
 66
     1
 10
0.0
 20
0.0
 30
0.0
  0
VERTEX
  5
51C7
  8
0
 10
429.44296310751531
 20
59.022417147518787
 30
0.0
  0
VERTEX
  5
51C8
  8
0
 10
423.88113410751532
 20
59.320513147518803
 30
0.0
  0
VERTEX
  5
51C9
  8
0
 10
418.29838610751511
 20
59.540453147518861
 30
0.0
  0
VERTEX
  5
51CA
  8
0
 10
412.69558810751522
 20
59.681749147518808
 30
0.0
  0
VERTEX
  5
51CB
  8
0
 10
409.88244710751508
 20
59.72273414751885
 30
0.0
  0
VERTEX
  5
51CC
  8
0
 10
407.06483510751519
 20
59.743654147518768
 30
0.0
  0
VERTEX
  5
51CD
  8
0
 10
404.25232010751517
 20
59.744432147518857
 30
0.0
  0
VERTEX
  5
51CE
  8
0
 10
401.43588310751528
 20
59.724993147518823
 30
0.0
  0
VERTEX
  5
51CF
  8
0
 10
397.66888510751528
 20
59.66719214751879
 30
0.0
  0
VERTEX
  5
51D0
  8
0
 10
393.89622510751531
 20
59.572588147518772
 30
0.0
  0
VERTEX
  5
51D1
  8
0
 10
390.11880510751541
 20
59.440691147518791
 30
0.0
  0
VERTEX
  5
51D2
  8
0
 10
385.07646210751528
 20
59.205873147518787
 30
0.0
  0
VERTEX
  5
51D3
  8
0
 10
380.02969410751541
 20
58.902422147518791
 30
0.0
  0
VERTEX
  5
51D4
  8
0
 10
374.98109510751527
 20
58.528887147518788
 30
0.0
  0
VERTEX
  5
51D5
  8
0
 10
369.93338110751529
 20
58.083712147518767
 30
0.0
  0
VERTEX
  5
51D6
  8
0
 10
364.88943510751528
 20
57.565279147518808
 30
0.0
  0
VERTEX
  5
51D7
  8
0
 10
359.8522501075152
 20
56.971880147518839
 30
0.0
  0
VERTEX
  5
51D8
  8
0
 10
354.82487510751531
 20
56.301775147518811
 30
0.0
  0
VERTEX
  5
51D9
  8
0
 10
352.30838110751529
 20
55.936281147518777
 30
0.0
  0
VERTEX
  5
51DA
  8
0
 10
349.79554810751517
 20
55.550829147518812
 30
0.0
  0
VERTEX
  5
51DB
  8
0
 10
347.3016671075153
 20
55.147646147518799
 30
0.0
  0
VERTEX
  5
51DC
  8
0
 10
344.81221110751528
 20
54.724291147518791
 30
0.0
  0
VERTEX
  5
51DD
  8
0
 10
340.14384510751518
 20
53.872667147518818
 30
0.0
  0
VERTEX
  5
51DE
  8
0
 10
335.49514810751532
 20
52.947374147518822
 30
0.0
  0
VERTEX
  5
51DF
  8
0
 10
333.15139810751532
 20
52.45066314751881
 30
0.0
  0
VERTEX
  5
51E0
  8
0
 10
330.81369810751528
 20
51.934526147518802
 30
0.0
  0
VERTEX
  5
51E1
  8
0
 10
328.53724710751533
 20
51.411608147518841
 30
0.0
  0
VERTEX
  5
51E2
  8
0
 10
326.26718910751532
 20
50.869814147518817
 30
0.0
  0
VERTEX
  5
51E3
  8
0
 10
322.4534151075153
 20
49.91265314751881
 30
0.0
  0
VERTEX
  5
51E4
  8
0
 10
318.6601191075153
 20
48.900446147518807
 30
0.0
  0
VERTEX
  5
51E5
  8
0
 10
314.88871810751527
 20
47.832407147518808
 30
0.0
  0
VERTEX
  5
51E6
  8
0
 10
311.1405491075152
 20
46.707758147518803
 30
0.0
  0
VERTEX
  5
51E7
  8
0
 10
307.41693210751532
 20
45.525759147518841
 30
0.0
  0
VERTEX
  5
51E8
  8
0
 10
303.71910910751518
 20
44.285715147518808
 30
0.0
  0
VERTEX
  5
51E9
  8
0
 10
299.75579510751533
 20
42.88048014751881
 30
0.0
  0
VERTEX
  5
51EA
  8
0
 10
295.82534510751532
 20
41.405954147518841
 30
0.0
  0
VERTEX
  5
51EB
  8
0
 10
291.92904710751532
 20
39.861406147518842
 30
0.0
  0
VERTEX
  5
51EC
  8
0
 10
288.0680811075153
 20
38.246172147518777
 30
0.0
  0
VERTEX
  5
51ED
  8
0
 10
286.15117710751531
 20
37.41185214751885
 30
0.0
  0
VERTEX
  5
51EE
  8
0
 10
284.24349310751518
 20
36.55964914751884
 30
0.0
  0
VERTEX
  5
51EF
  8
0
 10
281.0847861075153
 20
35.099375147518799
 30
0.0
  0
VERTEX
  5
51F0
  8
0
 10
277.95243510751533
 20
33.588984147518829
 30
0.0
  0
VERTEX
  5
51F1
  8
0
 10
274.84681710751528
 20
32.028254147518801
 30
0.0
  0
VERTEX
  5
51F2
  8
0
 10
271.76823110751531
 20
30.417017147518841
 30
0.0
  0
VERTEX
  5
51F3
  8
0
 10
268.7169001075153
 20
28.75514414751882
 30
0.0
  0
VERTEX
  5
51F4
  8
0
 10
265.69295910751532
 20
27.04255914751883
 30
0.0
  0
SEQEND
  5
51F5
  8
0
  0
POLYLINE
  5
18E3
  8
0
 66
     1
 10
0.0
 20
0.0
 30
0.0
  0
VERTEX
  5
51F6
  8
0
 10
282.84378510751532
 20
16.734880147518819
 30
0.0
  0
VERTEX
  5
51F7
  8
0
 10
287.88526610751529
 20
16.460955147518799
 30
0.0
  0
VERTEX
  5
51F8
  8
0
 10
293.06524710751518
 20
16.235697147518799
 30
0.0
  0
VERTEX
  5
51F9
  8
0
 10
296.92851710751518
 20
16.095613147518801
 30
0.0
  0
VERTEX
  5
51FA
  8
0
 10
300.81257710751532
 20
15.974375147518799
 30
0.0
  0
VERTEX
  5
51FB
  8
0
 10
305.52441510751532
 20
15.84997714751881
 30
0.0
  0
VERTEX
  5
51FC
  8
0
 10
310.2144931075153
 20
15.74805614751881
 30
0.0
  0
VERTEX
  5
51FD
  8
0
 10
318.64564610751518
 20
15.61556414751885
 30
0.0
  0
VERTEX
  5
51FE
  8
0
 10
326.78704910751532
 20
15.5519811475188
 30
0.0
  0
VERTEX
  5
51FF
  8
0
 10
329.44296310751531
 20
15.5473651475188
 30
0.0
  0
SEQEND
  5
5200
  8
0
  0
LINE
  5
18E4
  8
0
 10
329.44296310751531
 20
15.5473651475188
 30
0.0
 11
341.94296310751531
 21
15.5473651475188
 31
0.0
  0
ARC
  5
18E5
  8
0
 10
341.94296310751531
 20
18.0473651475188
 30
0.0
 40
2.5
 50
269.9999969999991
 51
0.0
  0
LINE
  5
18E6
  8
0
 10
344.4429631075152
 20
18.0473651475188
 30
0.0
 11
344.4429631075152
 21
49.581896147518819
 31
0.0
  0
POLYLINE
  5
18E7
  8
0
 66
     1
 10
0.0
 20
0.0
 30
0.0
  0
VERTEX
  5
5201
  8
0
 10
344.4429631075152
 20
49.581896147518819
 30
0.0
  0
VERTEX
  5
5202
  8
0
 10
340.50085510751518
 20
48.850069147518809
 30
0.0
  0
VERTEX
  5
5203
  8
0
 10
336.5722281075154
 20
48.064356147518808
 30
0.0
  0
VERTEX
  5
5204
  8
0
 10
332.07047310751528
 20
47.092287147518789
 30
0.0
  0
VERTEX
  5
5205
  8
0
 10
327.5902101075153
 20
46.045794147518791
 30
0.0
  0
VERTEX
  5
5206
  8
0
 10
325.3587801075152
 20
45.494112147518813
 30
0.0
  0
VERTEX
  5
5207
  8
0
 10
323.13351510751528
 20
44.923204147518838
 30
0.0
  0
VERTEX
  5
5208
  8
0
 10
319.80778510751531
 20
44.030367147518803
 30
0.0
  0
VERTEX
  5
5209
  8
0
 10
316.49746710751532
 20
43.093142147518847
 30
0.0
  0
VERTEX
  5
520A
  8
0
 10
313.20353010751518
 20
42.110903147518798
 30
0.0
  0
VERTEX
  5
520B
  8
0
 10
309.92692610751533
 20
41.083025147518811
 30
0.0
  0
VERTEX
  5
520C
  8
0
 10
306.12738810751529
 20
39.825365147518831
 30
0.0
  0
VERTEX
  5
520D
  8
0
 10
302.35423310751531
 20
38.503893147518788
 30
0.0
  0
VERTEX
  5
520E
  8
0
 10
298.60892910751528
 20
37.117785147518809
 30
0.0
  0
VERTEX
  5
520F
  8
0
 10
294.8928951075153
 20
35.666307147518822
 30
0.0
  0
VERTEX
  5
5210
  8
0
 10
291.20749710751528
 20
34.148806147518833
 30
0.0
  0
VERTEX
  5
5211
  8
0
 10
287.5540321075153
 20
32.564692147518826
 30
0.0
  0
VERTEX
  5
5212
  8
0
 10
283.93370110751528
 20
30.913523147518848
 30
0.0
  0
VERTEX
  5
5213
  8
0
 10
280.34761110751521
 20
29.194925147518799
 30
0.0
  0
SEQEND
  5
5214
  8
0
  0
ARC
  5
18E8
  8
0
 10
283.2446791075152
 20
23.295252147518799
 30
0.0
 40
6.572608999999999
 50
116.1535960000005
 51
266.50309100000032
  0
ARC
  5
18E9
  8
0
 10
356.9429631075152
 20
18.0473651475188
 30
0.0
 40
2.5
 50
180.0000050000005
 51
269.9999969999991
  0
LINE
  5
18EA
  8
0
 10
356.9429631075152
 20
15.5473651475188
 30
0.0
 11
411.9429631075152
 21
15.5473651475188
 31
0.0
  0
ARC
  5
18EB
  8
0
 10
411.9429631075152
 20
18.0473651475188
 30
0.0
 40
2.5
 50
269.9999969999991
 51
0.0
  0
LINE
  5
18EC
  8
0
 10
414.4429631075152
 20
18.0473651475188
 30
0.0
 11
414.4429631075152
 21
39.3792741475188
 31
0.0
  0
ARC
  5
18ED
  8
0
 10
411.9429631075152
 20
39.3792741475188
 30
0.0
 40
2.5
 50
0.0
 51
85.999998000000986
  0
LINE
  5
18EE
  8
0
 10
412.11735610751521
 20
41.873178147518843
 30
0.0
 11
386.76857010751542
 21
43.645739147518839
 31
0.0
  0
ARC
  5
18EF
  8
0
 10
386.94296310751531
 20
46.1396501475188
 30
0.0
 40
2.5
 50
179.9999949999995
 51
266.00000000000028
  0
LINE
  5
18F0
  8
0
 10
384.4429631075152
 20
46.1396501475188
 30
0.0
 11
384.4429631075152
 21
51.511019147518809
 31
0.0
  0
ARC
  5
18F1
  8
0
 10
381.9429631075152
 20
51.511019147518809
 30
0.0
 40
2.5
 50
0.0
 51
95.679782999999048
  0
LINE
  5
18F2
  8
0
 10
381.69554210751528
 20
53.99874314751878
 30
0.0
 11
356.69554210751528
 21
51.512316147518852
 31
0.0
  0
ARC
  5
18F3
  8
0
 10
356.9429631075152
 20
49.02459114751877
 30
0.0
 40
2.5
 50
95.679782999999048
 51
180.0000050000005
  0
LINE
  5
18F4
  8
0
 10
354.44296310751531
 20
49.02459114751877
 30
0.0
 11
354.44296310751531
 21
18.0473651475188
 31
0.0
  0
LINE
  5
18F5
  8
0
 10
499.1555031075153
 20
35.786882147518781
 30
0.0
 11
437.11735610751521
 21
40.125010147518807
 31
0.0
  0
ARC
  5
18F6
  8
0
 10
436.9429631075152
 20
37.631098147518799
 30
0.0
 40
2.5
 50
85.999998000000986
 51
180.0000050000005
  0
LINE
  5
18F7
  8
0
 10
434.4429631075152
 20
37.631098147518799
 30
0.0
 11
434.4429631075152
 21
18.0473651475188
 31
0.0
  0
ARC
  5
18F8
  8
0
 10
436.9429631075152
 20
18.0473651475188
 30
0.0
 40
2.5
 50
180.0000050000005
 51
269.9999969999991
  0
LINE
  5
18F9
  8
0
 10
436.9429631075152
 20
15.5473651475188
 30
0.0
 11
471.9429631075152
 21
15.5473651475188
 31
0.0
  0
ARC
  5
18FA
  8
0
 10
471.9429631075152
 20
18.0473651475188
 30
0.0
 40
2.5
 50
269.9999969999991
 51
0.0
  0
LINE
  5
18FB
  8
0
 10
474.4429631075152
 20
18.0473651475188
 30
0.0
 11
474.4429631075152
 21
23.0473651475188
 31
0.0
  0
ARC
  5
18FC
  8
0
 10
476.9429631075152
 20
23.0473651475188
 30
0.0
 40
2.5
 50
90.000003000000945
 51
180.0000050000005
  0
LINE
  5
18FD
  8
0
 10
476.9429631075152
 20
25.5473651475188
 30
0.0
 11
495.9525761075152
 21
25.5473651475188
 31
0.0
  0
ARC
  5
18FE
  8
0
 10
495.9525761075152
 20
28.0473651475188
 30
0.0
 40
2.5
 50
269.9999969999991
 51
329.99999899999932
  0
LINE
  5
18FF
  8
0
 10
498.11763010751508
 20
26.7973651475188
 30
0.0
 11
501.1461951075151
 21
32.042971147518813
 31
0.0
  0
ARC
  5
1900
  8
0
 10
498.9811251075152
 20
33.292971147518813
 30
0.0
 40
2.5
 50
329.99999899999932
 51
85.999998000000986
  0
ARC
  5
27E6
  8
0
 10
20.87439928924508
 20
65.536601298019718
 30
0.0
 40
2.049999999999998
 50
0.0
 51
180.0000050000005
  0
ARC
  5
27E7
  8
0
 10
20.87439928924508
 20
65.536601298019718
 30
0.0
 40
2.049999999999998
 50
180.0000050000005
 51
0.0
  0
ARC
  5
27E8
  8
0
 10
62.874399289245062
 20
67.424068298019705
 30
0.0
 40
2.049999999999998
 50
0.0
 51
180.0000050000005
  0
ARC
  5
27E9
  8
0
 10
62.874399289245062
 20
67.424068298019705
 30
0.0
 40
2.049999999999998
 50
180.0000050000005
 51
0.0
  0
ARC
  5
27EA
  8
0
 10
68.985406289245077
 20
66.22812229801967
 30
0.0
 40
0.75
 50
0.0
 51
180.0000050000005
  0
ARC
  5
27EB
  8
0
 10
68.985406289245077
 20
66.22812229801967
 30
0.0
 40
0.75
 50
180.0000050000005
 51
0.0
  0
LINE
  5
27EC
  8
0
 10
106.948114289245
 20
62.041599298019712
 30
0.0
 11
106.948114289245
 21
59.744891298019702
 31
0.0
  0
LINE
  5
27ED
  8
0
 10
106.948114289245
 20
59.744891298019702
 30
0.0
 11
123.9193972892451
 21
59.744891298019702
 31
0.0
  0
LINE
  5
27EE
  8
0
 10
123.9193972892451
 20
59.744891298019702
 30
0.0
 11
123.9193972892451
 21
61.055736298019717
 31
0.0
  0
LINE
  5
27EF
  8
0
 10
123.9193972892451
 20
61.055736298019717
 30
0.0
 11
111.948114289245
 21
61.885417298019718
 31
0.0
  0
LINE
  5
27F0
  8
0
 10
111.948114289245
 20
61.885417298019718
 30
0.0
 11
112.0172512892451
 21
62.883029298019721
 31
0.0
  0
LINE
  5
27F1
  8
0
 10
112.0172512892451
 20
62.883029298019721
 30
0.0
 11
114.012460289245
 21
62.744747298019718
 31
0.0
  0
LINE
  5
27F2
  8
0
 10
114.012460289245
 20
62.744747298019718
 30
0.0
 11
114.01703828924499
 21
62.810642298019722
 31
0.0
  0
POLYLINE
  5
27F3
  8
0
 66
     1
 10
0.0
 20
0.0
 30
0.0
  0
VERTEX
  5
5215
  8
0
 10
114.01703828924499
 20
62.810642298019722
 30
0.0
  0
VERTEX
  5
5216
  8
0
 10
109.6883942892451
 20
63.611743298019761
 30
0.0
  0
VERTEX
  5
5217
  8
0
 10
104.9839262892451
 20
64.438938298019707
 30
0.0
  0
VERTEX
  5
5218
  8
0
 10
95.559167289245053
 20
66.071353298019744
 30
0.0
  0
VERTEX
  5
5219
  8
0
 10
90.866052289245104
 20
66.866870298019705
 30
0.0
  0
VERTEX
  5
521A
  8
0
 10
85.766427289245087
 20
67.69462929801972
 30
0.0
  0
VERTEX
  5
521B
  8
0
 10
83.221795289245065
 20
68.081165298019698
 30
0.0
  0
VERTEX
  5
521C
  8
0
 10
79.692071289245092
 20
68.576129298019737
 30
0.0
  0
VERTEX
  5
521D
  8
0
 10
76.16318628924509
 20
69.015331298019746
 30
0.0
  0
VERTEX
  5
521E
  8
0
 10
72.476999289245057
 20
69.413272298019706
 30
0.0
  0
VERTEX
  5
521F
  8
0
 10
68.782998289245086
 20
69.759967298019717
 30
0.0
  0
VERTEX
  5
5220
  8
0
 10
64.107339289245061
 20
70.142322298019749
 30
0.0
  0
VERTEX
  5
5221
  8
0
 10
59.440149289245092
 20
70.458843298019701
 30
0.0
  0
VERTEX
  5
5222
  8
0
 10
57.10158728924506
 20
70.590106298019734
 30
0.0
  0
VERTEX
  5
5223
  8
0
 10
54.757043289245061
 20
70.70154129801972
 30
0.0
  0
VERTEX
  5
5224
  8
0
 10
51.284494289245089
 20
70.825183298019738
 30
0.0
  0
VERTEX
  5
5225
  8
0
 10
47.822580289245082
 20
70.895801298019705
 30
0.0
  0
VERTEX
  5
5226
  8
0
 10
43.874399289245062
 20
70.912349298019706
 30
0.0
  0
SEQEND
  5
5227
  8
0
  0
LINE
  5
27F4
  8
0
 10
43.874399289245062
 20
70.912349298019706
 30
0.0
 11
43.874399289245062
 21
68.80336329801969
 31
0.0
  0
LINE
  5
27F5
  8
0
 10
43.874399289245062
 20
68.80336329801969
 30
0.0
 11
35.87439928924509
 21
68.80336329801969
 31
0.0
  0
LINE
  5
27F6
  8
0
 10
35.87439928924509
 20
68.80336329801969
 30
0.0
 11
35.87439928924509
 21
70.703365298019719
 31
0.0
  0
POLYLINE
  5
27F7
  8
0
 66
     1
 10
0.0
 20
0.0
 30
0.0
  0
VERTEX
  5
5228
  8
0
 10
35.87439928924509
 20
70.703365298019719
 30
0.0
  0
VERTEX
  5
5229
  8
0
 10
33.66771828924508
 20
70.552936298019688
 30
0.0
  0
VERTEX
  5
522A
  8
0
 10
32.565896289245067
 20
70.458255298019694
 30
0.0
  0
VERTEX
  5
522B
  8
0
 10
30.8089082892451
 20
70.272731298019721
 30
0.0
  0
VERTEX
  5
522C
  8
0
 10
29.056970289245069
 20
70.043933298019738
 30
0.0
  0
VERTEX
  5
522D
  8
0
 10
27.581994289245081
 20
69.814594298019699
 30
0.0
  0
VERTEX
  5
522E
  8
0
 10
26.112481289245071
 20
69.552524298019705
 30
0.0
  0
VERTEX
  5
522F
  8
0
 10
24.496499289245101
 20
69.231670298019694
 30
0.0
  0
VERTEX
  5
5230
  8
0
 10
22.885644289245072
 20
68.886134298019726
 30
0.0
  0
SEQEND
  5
5231
  8
0
  0
POLYLINE
  5
27F8
  8
0
 66
     1
 10
0.0
 20
0.0
 30
0.0
  0
VERTEX
  5
5232
  8
0
 10
22.885644289245072
 20
68.886134298019726
 30
0.0
  0
VERTEX
  5
5233
  8
0
 10
20.817239289245091
 20
68.406871298019695
 30
0.0
  0
VERTEX
  5
5234
  8
0
 10
19.787835289245081
 20
68.147022298019692
 30
0.0
  0
VERTEX
  5
5235
  8
0
 10
18.763711289245052
 20
67.86737429801974
 30
0.0
  0
VERTEX
  5
5236
  8
0
 10
17.74634728924508
 20
67.564319298019711
 30
0.0
  0
VERTEX
  5
5237
  8
0
 10
16.736123289245079
 20
67.238109298019694
 30
0.0
  0
SEQEND
  5
5238
  8
0
  0
LINE
  5
27F9
  8
0
 10
16.736123289245079
 20
67.238109298019694
 30
0.0
 11
16.302606289245091
 21
67.088641298019709
 31
0.0
  0
POLYLINE
  5
27FA
  8
0
 66
     1
 10
0.0
 20
0.0
 30
0.0
  0
VERTEX
  5
5239
  8
0
 10
16.302606289245091
 20
67.088641298019709
 30
0.0
  0
VERTEX
  5
523A
  8
0
 10
15.11400728924508
 20
66.656955298019739
 30
0.0
  0
VERTEX
  5
523B
  8
0
 10
12.74662128924507
 20
65.766635298019708
 30
0.0
  0
SEQEND
  5
523C
  8
0
  0
LINE
  5
27FB
  8
0
 10
12.74662128924507
 20
65.766635298019708
 30
0.0
 11
12.30674128924508
 21
65.598361298019711
 31
0.0
  0
ARC
  5
27FC
  8
0
 10
21.74691128924508
 20
41.120715298019718
 30
0.0
 40
26.234819000000002
 50
111.0898779999998
 51
113.1188680000005
  0
ARC
  5
27FD
  8
0
 10
17.627466289245081
 20
50.754947298019701
 30
0.0
 40
15.756596
 50
113.0976670000011
 51
116.4200960000004
  0
POLYLINE
  5
27FE
  8
0
 66
     1
 10
0.0
 20
0.0
 30
0.0
  0
VERTEX
  5
523D
  8
0
 10
10.61663228924507
 20
64.86574929801975
 30
0.0
  0
VERTEX
  5
523E
  8
0
 10
9.8710262892450942
 20
64.471965298019711
 30
0.0
  0
VERTEX
  5
523F
  8
0
 10
9.3848202892450843
 20
64.189685298019754
 30
0.0
  0
VERTEX
  5
5240
  8
0
 10
8.4340152892450817
 20
63.589282298019711
 30
0.0
  0
SEQEND
  5
5241
  8
0
  0
LINE
  5
27FF
  8
0
 10
8.4340152892450817
 20
63.589282298019711
 30
0.0
 11
8.0159242892450742
 21
63.312450298019712
 31
0.0
  0
LINE
  5
2800
  8
0
 10
8.0159242892450742
 20
63.312450298019712
 30
0.0
 11
7.6065612892450618
 21
63.035983298019673
 31
0.0
  0
ARC
  5
2801
  8
0
 10
26.52195128924507
 20
35.078433298019718
 30
0.0
 40
33.755140000000011
 50
124.0813010000002
 51
125.3657859999996
  0
LINE
  5
2802
  8
0
 10
6.9847202892450753
 20
62.604785298019678
 30
0.0
 11
6.7767272892450867
 21
62.454791298019707
 31
0.0
  0
LINE
  5
2803
  8
0
 10
6.7767272892450867
 20
62.454791298019707
 30
0.0
 11
6.5627842892450872
 21
62.296718298019691
 31
0.0
  0
LINE
  5
2804
  8
0
 10
6.5627842892450872
 20
62.296718298019691
 30
0.0
 11
6.339944289245067
 21
62.127521298019708
 31
0.0
  0
LINE
  5
2805
  8
0
 10
6.339944289245067
 20
62.127521298019708
 30
0.0
 11
6.1081782892450729
 21
61.945262298019713
 31
0.0
  0
ARC
  5
2806
  8
0
 10
16.904977289245089
 20
48.458042298019741
 30
0.0
 40
17.276416000000001
 50
128.6780180000012
 51
130.1157180000003
  0
ARC
  5
2807
  8
0
 10
13.025949289245091
 20
53.166690298019702
 30
0.0
 40
11.176515999999999
 50
130.46163999999871
 51
134.66294400000061
  0
LINE
  5
2808
  8
0
 10
5.169397289245067
 20
61.116229298019718
 30
0.0
 11
5.1366362892450752
 21
61.077976298019721
 31
0.0
  0
LINE
  5
2809
  8
0
 10
5.1366362892450752
 20
61.077976298019721
 30
0.0
 11
8.7996462892450609
 21
61.718593298019712
 31
0.0
  0
LINE
  5
280A
  8
0
 10
8.7996462892450609
 20
61.718593298019712
 30
0.0
 11
9.1448152892450878
 21
59.744891298019702
 31
0.0
  0
LINE
  5
280B
  8
0
 10
9.1448152892450878
 20
59.744891298019702
 30
0.0
 11
9.2654052892450807
 21
59.746387298019727
 31
0.0
  0
POLYLINE
  5
280C
  8
0
 66
     1
 10
0.0
 20
0.0
 30
0.0
  0
VERTEX
  5
5242
  8
0
 10
9.2654052892450807
 20
59.746387298019727
 30
0.0
  0
VERTEX
  5
5243
  8
0
 10
11.366357289245061
 20
59.80062429801972
 30
0.0
  0
VERTEX
  5
5244
  8
0
 10
12.41584128924506
 20
59.853870298019721
 30
0.0
  0
VERTEX
  5
5245
  8
0
 10
13.98858028924508
 20
59.964923298019698
 30
0.0
  0
VERTEX
  5
5246
  8
0
 10
15.204706289245079
 20
60.069850298019723
 30
0.0
  0
VERTEX
  5
5247
  8
0
 10
16.419320289245089
 20
60.188938298019707
 30
0.0
  0
SEQEND
  5
5248
  8
0
  0
POLYLINE
  5
280D
  8
0
 66
     1
 10
0.0
 20
0.0
 30
0.0
  0
VERTEX
  5
5249
  8
0
 10
16.419320289245089
 20
60.188938298019707
 30
0.0
  0
VERTEX
  5
524A
  8
0
 10
19.543573289245071
 20
60.534549298019712
 30
0.0
  0
VERTEX
  5
524B
  8
0
 10
21.626977289245069
 20
60.758876298019743
 30
0.0
  0
VERTEX
  5
524C
  8
0
 10
24.750848289245081
 20
61.029735298019702
 30
0.0
  0
VERTEX
  5
524D
  8
0
 10
26.139856289245081
 20
61.123416298019713
 30
0.0
  0
VERTEX
  5
524E
  8
0
 10
28.919381289245109
 20
61.289363298019722
 30
0.0
  0
SEQEND
  5
524F
  8
0
  0
POLYLINE
  5
280E
  8
0
 66
     1
 10
0.0
 20
0.0
 30
0.0
  0
VERTEX
  5
5250
  8
0
 10
28.919381289245109
 20
61.289363298019722
 30
0.0
  0
VERTEX
  5
5251
  8
0
 10
34.935357289245083
 20
61.644946298019697
 30
0.0
  0
VERTEX
  5
5252
  8
0
 10
37.943597289245083
 20
61.81822529801974
 30
0.0
  0
VERTEX
  5
5253
  8
0
 10
42.456964289245093
 20
62.057636298019702
 30
0.0
  0
VERTEX
  5
5254
  8
0
 10
46.4009342892451
 20
62.236392298019709
 30
0.0
  0
VERTEX
  5
5255
  8
0
 10
50.34630728924509
 20
62.382968298019712
 30
0.0
  0
VERTEX
  5
5256
  8
0
 10
55.10735428924508
 20
62.523509298019682
 30
0.0
  0
VERTEX
  5
5257
  8
0
 10
59.86933328924507
 20
62.628681298019707
 30
0.0
  0
VERTEX
  5
5258
  8
0
 10
64.63190628924508
 20
62.697742298019712
 30
0.0
  0
VERTEX
  5
5259
  8
0
 10
68.204095289245089
 20
62.72494829801974
 30
0.0
  0
VERTEX
  5
525A
  8
0
 10
71.776391289245083
 20
62.731555298019721
 30
0.0
  0
VERTEX
  5
525B
  8
0
 10
77.56734628924508
 20
62.703227298019712
 30
0.0
  0
VERTEX
  5
525C
  8
0
 10
83.357934289245094
 20
62.632037298019718
 30
0.0
  0
VERTEX
  5
525D
  8
0
 10
89.174920289245065
 20
62.524684298019721
 30
0.0
  0
VERTEX
  5
525E
  8
0
 10
94.991327289245064
 20
62.389636298019681
 30
0.0
  0
VERTEX
  5
525F
  8
0
 10
100.34917628924499
 20
62.24673829801975
 30
0.0
  0
VERTEX
  5
5260
  8
0
 10
106.948114289245
 20
62.041599298019712
 30
0.0
  0
SEQEND
  5
5261
  8
0
  0
LINE
  5
280F
  8
0
 10
43.874399289245062
 20
65.71182629801973
 30
0.0
 11
35.87439928924509
 21
65.71182629801973
 31
0.0
  0
LINE
  5
2810
  8
0
 10
35.87439928924509
 20
65.71182629801973
 30
0.0
 11
35.87439928924509
 21
63.711826298019723
 31
0.0
  0
LINE
  5
2811
  8
0
 10
35.87439928924509
 20
63.711826298019723
 30
0.0
 11
43.874399289245062
 21
63.711826298019723
 31
0.0
  0
LINE
  5
2812
  8
0
 10
43.874399289245062
 20
63.711826298019723
 30
0.0
 11
43.874399289245062
 21
65.71182629801973
 31
0.0
  0
ARC
  5
2813
  8
0
 10
20.614734730506171
 20
76.688726371075731
 30
0.0
 40
2.049999999999998
 50
0.0
 51
180.0000050000005
  0
ARC
  5
2814
  8
0
 10
20.614734730506171
 20
76.688726371075731
 30
0.0
 40
2.049999999999998
 50
180.0000050000005
 51
0.0
  0
ARC
  5
2815
  8
0
 10
62.614734730506171
 20
78.57619337107576
 30
0.0
 40
2.049999999999998
 50
0.0
 51
180.0000050000005
  0
ARC
  5
2816
  8
0
 10
62.614734730506171
 20
78.57619337107576
 30
0.0
 40
2.049999999999998
 50
180.0000050000005
 51
0.0
  0
ARC
  5
2817
  8
0
 10
68.725741730506172
 20
77.380247371075711
 30
0.0
 40
0.75
 50
0.0
 51
180.0000050000005
  0
ARC
  5
2818
  8
0
 10
68.725741730506172
 20
77.380247371075711
 30
0.0
 40
0.75
 50
180.0000050000005
 51
0.0
  0
LINE
  5
2819
  8
0
 10
106.68844973050609
 20
73.193724371075731
 30
0.0
 11
106.68844973050609
 21
70.897016371075722
 31
0.0
  0
LINE
  5
281A
  8
0
 10
106.68844973050609
 20
70.897016371075722
 30
0.0
 11
123.65973273050609
 21
70.897016371075722
 31
0.0
  0
LINE
  5
281B
  8
0
 10
123.65973273050609
 20
70.897016371075722
 30
0.0
 11
123.65973273050609
 21
72.207861371075737
 31
0.0
  0
LINE
  5
281C
  8
0
 10
123.65973273050609
 20
72.207861371075737
 30
0.0
 11
111.68844973050609
 21
73.03754237107573
 31
0.0
  0
LINE
  5
281D
  8
0
 10
111.68844973050609
 20
73.03754237107573
 30
0.0
 11
111.75758673050611
 21
74.035154371075734
 31
0.0
  0
LINE
  5
281E
  8
0
 10
111.75758673050611
 20
74.035154371075734
 30
0.0
 11
113.75279573050619
 21
73.89687237107573
 31
0.0
  0
LINE
  5
281F
  8
0
 10
113.75279573050619
 20
73.89687237107573
 30
0.0
 11
113.7573737305062
 21
73.962767371075742
 31
0.0
  0
POLYLINE
  5
2820
  8
0
 66
     1
 10
0.0
 20
0.0
 30
0.0
  0
VERTEX
  5
5262
  8
0
 10
113.7573737305062
 20
73.962767371075742
 30
0.0
  0
VERTEX
  5
5263
  8
0
 10
109.42872973050611
 20
74.763868371075787
 30
0.0
  0
VERTEX
  5
5264
  8
0
 10
104.7242617305062
 20
75.591063371075734
 30
0.0
  0
VERTEX
  5
5265
  8
0
 10
95.299502730506134
 20
77.223478371075785
 30
0.0
  0
VERTEX
  5
5266
  8
0
 10
90.606387730506185
 20
78.018995371075732
 30
0.0
  0
VERTEX
  5
5267
  8
0
 10
85.506762730506196
 20
78.846754371075733
 30
0.0
  0
VERTEX
  5
5268
  8
0
 10
82.962130730506189
 20
79.233290371075711
 30
0.0
  0
VERTEX
  5
5269
  8
0
 10
79.432406730506187
 20
79.728254371075764
 30
0.0
  0
VERTEX
  5
526A
  8
0
 10
75.903521730506185
 20
80.167456371075787
 30
0.0
  0
VERTEX
  5
526B
  8
0
 10
72.217334730506153
 20
80.565397371075733
 30
0.0
  0
VERTEX
  5
526C
  8
0
 10
68.523333730506181
 20
80.91209237107573
 30
0.0
  0
VERTEX
  5
526D
  8
0
 10
63.847674730506149
 20
81.294447371075762
 30
0.0
  0
VERTEX
  5
526E
  8
0
 10
59.180484730506173
 20
81.610968371075685
 30
0.0
  0
VERTEX
  5
526F
  8
0
 10
56.841922730506163
 20
81.742231371075789
 30
0.0
  0
VERTEX
  5
5270
  8
0
 10
54.497378730506171
 20
81.853666371075732
 30
0.0
  0
VERTEX
  5
5271
  8
0
 10
51.024829730506177
 20
81.977308371075765
 30
0.0
  0
VERTEX
  5
5272
  8
0
 10
47.562915730506163
 20
82.047926371075732
 30
0.0
  0
VERTEX
  5
5273
  8
0
 10
43.614734730506171
 20
82.064474371075733
 30
0.0
  0
SEQEND
  5
5274
  8
0
  0
LINE
  5
2821
  8
0
 10
43.614734730506171
 20
82.064474371075733
 30
0.0
 11
43.614734730506171
 21
79.955488371075703
 31
0.0
  0
LINE
  5
2822
  8
0
 10
43.614734730506171
 20
79.955488371075703
 30
0.0
 11
35.614734730506171
 21
79.955488371075703
 31
0.0
  0
LINE
  5
2823
  8
0
 10
35.614734730506171
 20
79.955488371075703
 30
0.0
 11
35.614734730506171
 21
81.855490371075732
 31
0.0
  0
POLYLINE
  5
2824
  8
0
 66
     1
 10
0.0
 20
0.0
 30
0.0
  0
VERTEX
  5
5275
  8
0
 10
35.614734730506171
 20
81.855490371075732
 30
0.0
  0
VERTEX
  5
5276
  8
0
 10
33.408053730506168
 20
81.705061371075715
 30
0.0
  0
VERTEX
  5
5277
  8
0
 10
32.30623173050617
 20
81.610380371075735
 30
0.0
  0
VERTEX
  5
5278
  8
0
 10
30.549243730506191
 20
81.424856371075734
 30
0.0
  0
VERTEX
  5
5279
  8
0
 10
28.797305730506171
 20
81.196058371075765
 30
0.0
  0
VERTEX
  5
527A
  8
0
 10
27.32232973050618
 20
80.966719371075698
 30
0.0
  0
VERTEX
  5
527B
  8
0
 10
25.852816730506159
 20
80.704649371075732
 30
0.0
  0
VERTEX
  5
527C
  8
0
 10
24.2368347305062
 20
80.383795371075735
 30
0.0
  0
VERTEX
  5
527D
  8
0
 10
22.62597973050617
 20
80.038259371075739
 30
0.0
  0
SEQEND
  5
527E
  8
0
  0
POLYLINE
  5
2825
  8
0
 66
     1
 10
0.0
 20
0.0
 30
0.0
  0
VERTEX
  5
527F
  8
0
 10
22.62597973050617
 20
80.038259371075739
 30
0.0
  0
VERTEX
  5
5280
  8
0
 10
20.55757473050619
 20
79.55899637107575
 30
0.0
  0
VERTEX
  5
5281
  8
0
 10
19.52817073050619
 20
79.299147371075733
 30
0.0
  0
VERTEX
  5
5282
  8
0
 10
18.504046730506161
 20
79.019499371075767
 30
0.0
  0
VERTEX
  5
5283
  8
0
 10
17.486682730506171
 20
78.71644437107571
 30
0.0
  0
VERTEX
  5
5284
  8
0
 10
16.476458730506181
 20
78.390234371075735
 30
0.0
  0
SEQEND
  5
5285
  8
0
  0
LINE
  5
2826
  8
0
 10
16.476458730506181
 20
78.390234371075735
 30
0.0
 11
16.042941730506179
 21
78.240766371075694
 31
0.0
  0
POLYLINE
  5
2827
  8
0
 66
     1
 10
0.0
 20
0.0
 30
0.0
  0
VERTEX
  5
5286
  8
0
 10
16.042941730506179
 20
78.240766371075694
 30
0.0
  0
VERTEX
  5
5287
  8
0
 10
14.85434273050617
 20
77.809080371075765
 30
0.0
  0
VERTEX
  5
5288
  8
0
 10
12.48695673050616
 20
76.918760371075734
 30
0.0
  0
SEQEND
  5
5289
  8
0
  0
LINE
  5
2828
  8
0
 10
12.48695673050616
 20
76.918760371075734
 30
0.0
 11
12.047076730506181
 21
76.750486371075738
 31
0.0
  0
ARC
  5
2829
  8
0
 10
21.487246730506168
 20
52.272840371075738
 30
0.0
 40
26.234819000000002
 50
111.0898779999998
 51
113.1188680000005
  0
ARC
  5
282A
  8
0
 10
17.36780173050618
 20
61.907072371075742
 30
0.0
 40
15.756596
 50
113.0976670000011
 51
116.4200960000004
  0
POLYLINE
  5
282B
  8
0
 66
     1
 10
0.0
 20
0.0
 30
0.0
  0
VERTEX
  5
528A
  8
0
 10
10.35696773050617
 20
76.017874371075777
 30
0.0
  0
VERTEX
  5
528B
  8
0
 10
9.6113617305061894
 20
75.624090371075738
 30
0.0
  0
VERTEX
  5
528C
  8
0
 10
9.1251557305061795
 20
75.34181037107578
 30
0.0
  0
VERTEX
  5
528D
  8
0
 10
8.1743507305061769
 20
74.741407371075738
 30
0.0
  0
SEQEND
  5
528E
  8
0
  0
LINE
  5
282C
  8
0
 10
8.1743507305061769
 20
74.741407371075738
 30
0.0
 11
7.7562597305061729
 21
74.464575371075739
 31
0.0
  0
LINE
  5
282D
  8
0
 10
7.7562597305061729
 20
74.464575371075739
 30
0.0
 11
7.3468967305061588
 21
74.1881083710757
 31
0.0
  0
ARC
  5
282E
  8
0
 10
26.262286730506158
 20
46.230558371075738
 30
0.0
 40
33.755140000000011
 50
124.0813010000002
 51
125.3657859999996
  0
LINE
  5
282F
  8
0
 10
6.7250557305061687
 20
73.756910371075705
 30
0.0
 11
6.517062730506181
 21
73.606916371075712
 31
0.0
  0
LINE
  5
2830
  8
0
 10
6.517062730506181
 20
73.606916371075712
 30
0.0
 11
6.3031197305061823
 21
73.448843371075711
 31
0.0
  0
LINE
  5
2831
  8
0
 10
6.3031197305061823
 20
73.448843371075711
 30
0.0
 11
6.0802797305061631
 21
73.279646371075685
 31
0.0
  0
LINE
  5
2832
  8
0
 10
6.0802797305061631
 20
73.279646371075685
 30
0.0
 11
5.8485137305061681
 21
73.09738737107574
 31
0.0
  0
ARC
  5
2833
  8
0
 10
16.645312730506191
 20
59.610167371075747
 30
0.0
 40
17.276416000000001
 50
128.6780180000012
 51
130.1157180000003
  0
ARC
  5
2834
  8
0
 10
12.766284730506181
 20
64.318815371075743
 30
0.0
 40
11.176515999999999
 50
130.46163999999871
 51
134.66294400000061
  0
LINE
  5
2835
  8
0
 10
4.9097327305061631
 20
72.268354371075759
 30
0.0
 11
4.8769717305061686
 21
72.230101371075762
 31
0.0
  0
LINE
  5
2836
  8
0
 10
4.8769717305061686
 20
72.230101371075762
 30
0.0
 11
8.5399817305061561
 21
72.870718371075711
 31
0.0
  0
LINE
  5
2837
  8
0
 10
8.5399817305061561
 20
72.870718371075711
 30
0.0
 11
8.8851507305061812
 21
70.897016371075722
 31
0.0
  0
LINE
  5
2838
  8
0
 10
8.8851507305061812
 20
70.897016371075722
 30
0.0
 11
9.0057407305061759
 21
70.898512371075753
 31
0.0
  0
POLYLINE
  5
2839
  8
0
 66
     1
 10
0.0
 20
0.0
 30
0.0
  0
VERTEX
  5
528F
  8
0
 10
9.0057407305061759
 20
70.898512371075753
 30
0.0
  0
VERTEX
  5
5290
  8
0
 10
11.10669273050615
 20
70.952749371075768
 30
0.0
  0
VERTEX
  5
5291
  8
0
 10
12.156176730506161
 20
71.005995371075755
 30
0.0
  0
VERTEX
  5
5292
  8
0
 10
13.72891573050617
 20
71.117048371075725
 30
0.0
  0
VERTEX
  5
5293
  8
0
 10
14.945041730506169
 20
71.221975371075757
 30
0.0
  0
VERTEX
  5
5294
  8
0
 10
16.159655730506191
 20
71.341063371075734
 30
0.0
  0
SEQEND
  5
5295
  8
0
  0
POLYLINE
  5
283A
  8
0
 66
     1
 10
0.0
 20
0.0
 30
0.0
  0
VERTEX
  5
5296
  8
0
 10
16.159655730506191
 20
71.341063371075734
 30
0.0
  0
VERTEX
  5
5297
  8
0
 10
19.28390873050617
 20
71.686674371075753
 30
0.0
  0
VERTEX
  5
5298
  8
0
 10
21.367312730506171
 20
71.91100137107577
 30
0.0
  0
VERTEX
  5
5299
  8
0
 10
24.491183730506179
 20
72.181860371075729
 30
0.0
  0
VERTEX
  5
529A
  8
0
 10
25.880191730506169
 20
72.275541371075732
 30
0.0
  0
VERTEX
  5
529B
  8
0
 10
28.659716730506211
 20
72.441488371075764
 30
0.0
  0
SEQEND
  5
529C
  8
0
  0
POLYLINE
  5
283B
  8
0
 66
     1
 10
0.0
 20
0.0
 30
0.0
  0
VERTEX
  5
529D
  8
0
 10
28.659716730506211
 20
72.441488371075764
 30
0.0
  0
VERTEX
  5
529E
  8
0
 10
34.675692730506171
 20
72.797071371075731
 30
0.0
  0
VERTEX
  5
529F
  8
0
 10
37.683932730506172
 20
72.970350371075739
 30
0.0
  0
VERTEX
  5
52A0
  8
0
 10
42.197299730506167
 20
73.209761371075729
 30
0.0
  0
VERTEX
  5
52A1
  8
0
 10
46.141269730506181
 20
73.388517371075736
 30
0.0
  0
VERTEX
  5
52A2
  8
0
 10
50.086642730506192
 20
73.535093371075732
 30
0.0
  0
VERTEX
  5
52A3
  8
0
 10
54.847689730506168
 20
73.675634371075702
 30
0.0
  0
VERTEX
  5
52A4
  8
0
 10
59.609668730506172
 20
73.780806371075741
 30
0.0
  0
VERTEX
  5
52A5
  8
0
 10
64.372241730506175
 20
73.849867371075732
 30
0.0
  0
VERTEX
  5
52A6
  8
0
 10
67.944430730506184
 20
73.877073371075767
 30
0.0
  0
VERTEX
  5
52A7
  8
0
 10
71.516726730506193
 20
73.883680371075741
 30
0.0
  0
VERTEX
  5
52A8
  8
0
 10
77.307681730506189
 20
73.855352371075739
 30
0.0
  0
VERTEX
  5
52A9
  8
0
 10
83.098269730506175
 20
73.784162371075737
 30
0.0
  0
VERTEX
  5
52AA
  8
0
 10
88.915255730506189
 20
73.676809371075763
 30
0.0
  0
VERTEX
  5
52AB
  8
0
 10
94.731662730506144
 20
73.541761371075708
 30
0.0
  0
VERTEX
  5
52AC
  8
0
 10
100.0895117305062
 20
73.398863371075777
 30
0.0
  0
VERTEX
  5
52AD
  8
0
 10
106.68844973050609
 20
73.193724371075731
 30
0.0
  0
SEQEND
  5
52AE
  8
0
  0
LINE
  5
283C
  8
0
 10
43.614734730506171
 20
76.863951371075729
 30
0.0
 11
35.614734730506171
 21
76.863951371075729
 31
0.0
  0
LINE
  5
283D
  8
0
 10
35.614734730506171
 20
76.863951371075729
 30
0.0
 11
35.614734730506171
 21
74.863951371075729
 31
0.0
  0
LINE
  5
283E
  8
0
 10
35.614734730506171
 20
74.863951371075729
 30
0.0
 11
43.614734730506171
 21
74.863951371075729
 31
0.0
  0
LINE
  5
283F
  8
0
 10
43.614734730506171
 20
74.863951371075729
 30
0.0
 11
43.614734730506171
 21
76.863951371075729
 31
0.0
  0
ARC
  5
28A2
  8
0
 10
20.724813845934278
 20
87.565500505144826
 30
0.0
 40
2.049999999999998
 50
0.0
 51
180.0000050000005
  0
ARC
  5
28A3
  8
0
 10
20.724813845934278
 20
87.565500505144826
 30
0.0
 40
2.049999999999998
 50
180.0000050000005
 51
0.0
  0
ARC
  5
28A4
  8
0
 10
62.724813845934278
 20
89.452966505144786
 30
0.0
 40
2.049999999999998
 50
0.0
 51
180.0000050000005
  0
ARC
  5
28A5
  8
0
 10
62.724813845934278
 20
89.452966505144786
 30
0.0
 40
2.049999999999998
 50
180.0000050000005
 51
0.0
  0
ARC
  5
28A6
  8
0
 10
68.835820845934251
 20
88.610025505144804
 30
0.0
 40
0.75
 50
180.0000050000005
 51
0.0
  0
ARC
  5
28A7
  8
0
 10
68.835820845934251
 20
88.610025505144804
 30
0.0
 40
0.75
 50
0.0
 51
180.0000050000005
  0
ARC
  5
28A8
  8
0
 10
71.835652845934277
 20
88.578119505144784
 30
0.0
 40
0.75
 50
0.0
 51
180.0000050000005
  0
ARC
  5
28A9
  8
0
 10
71.835652845934277
 20
88.578119505144784
 30
0.0
 40
0.75
 50
180.0000050000005
 51
0.0
  0
LINE
  5
28AA
  8
0
 10
106.7985288459343
 20
84.42350250514481
 30
0.0
 11
106.7985288459343
 21
82.126794505144801
 31
0.0
  0
LINE
  5
28AB
  8
0
 10
106.7985288459343
 20
82.126794505144801
 30
0.0
 11
123.7698118459342
 21
82.126794505144801
 31
0.0
  0
LINE
  5
28AC
  8
0
 10
123.7698118459342
 20
82.126794505144801
 30
0.0
 11
123.7698118459342
 21
83.437639505144844
 31
0.0
  0
LINE
  5
28AD
  8
0
 10
123.7698118459342
 20
83.437639505144844
 30
0.0
 11
111.7985288459342
 21
84.267320505144795
 31
0.0
  0
LINE
  5
28AE
  8
0
 10
111.7985288459342
 20
84.267320505144795
 30
0.0
 11
111.8676658459343
 21
85.264932505144813
 31
0.0
  0
LINE
  5
28AF
  8
0
 10
111.8676658459343
 20
85.264932505144813
 30
0.0
 11
113.8628748459343
 21
85.126650505144809
 31
0.0
  0
LINE
  5
28B0
  8
0
 10
113.8628748459343
 20
85.126650505144809
 30
0.0
 11
113.8674528459343
 21
85.192545505144821
 31
0.0
  0
POLYLINE
  5
28B1
  8
0
 66
     1
 10
0.0
 20
0.0
 30
0.0
  0
VERTEX
  5
52AF
  8
0
 10
113.8674528459343
 20
85.192545505144821
 30
0.0
  0
VERTEX
  5
52B0
  8
0
 10
109.5388088459342
 20
85.993646505144866
 30
0.0
  0
VERTEX
  5
52B1
  8
0
 10
104.83434084593431
 20
86.820841505144827
 30
0.0
  0
VERTEX
  5
52B2
  8
0
 10
95.409581845934241
 20
88.45325650514485
 30
0.0
  0
VERTEX
  5
52B3
  8
0
 10
90.716466845934306
 20
89.248773505144811
 30
0.0
  0
VERTEX
  5
52B4
  8
0
 10
85.616841845934289
 20
90.076532505144812
 30
0.0
  0
VERTEX
  5
52B5
  8
0
 10
83.072209845934253
 20
90.463068505144804
 30
0.0
  0
VERTEX
  5
52B6
  8
0
 10
79.542485845934294
 20
90.958032505144828
 30
0.0
  0
VERTEX
  5
52B7
  8
0
 10
76.013600845934292
 20
91.397234505144866
 30
0.0
  0
VERTEX
  5
52B8
  8
0
 10
72.327413845934274
 20
91.795175505144798
 30
0.0
  0
VERTEX
  5
52B9
  8
0
 10
68.633412845934274
 20
92.141870505144794
 30
0.0
  0
VERTEX
  5
52BA
  8
0
 10
63.957753845934249
 20
92.524225505144841
 30
0.0
  0
VERTEX
  5
52BB
  8
0
 10
59.290563845934287
 20
92.840746505144807
 30
0.0
  0
VERTEX
  5
52BC
  8
0
 10
56.952001845934248
 20
92.972009505144854
 30
0.0
  0
VERTEX
  5
52BD
  8
0
 10
54.60745784593427
 20
93.083444505144797
 30
0.0
  0
VERTEX
  5
52BE
  8
0
 10
51.134908845934277
 20
93.207086505144844
 30
0.0
  0
VERTEX
  5
52BF
  8
0
 10
47.672994845934276
 20
93.277704505144811
 30
0.0
  0
VERTEX
  5
52C0
  8
0
 10
43.724813845934271
 20
93.294252505144797
 30
0.0
  0
SEQEND
  5
52C1
  8
0
  0
LINE
  5
28B2
  8
0
 10
43.724813845934271
 20
93.294252505144797
 30
0.0
 11
43.724813845934271
 21
91.185266505144796
 31
0.0
  0
LINE
  5
28B3
  8
0
 10
43.724813845934271
 20
91.185266505144796
 30
0.0
 11
35.724813845934278
 21
91.185266505144796
 31
0.0
  0
LINE
  5
28B4
  8
0
 10
35.724813845934278
 20
91.185266505144796
 30
0.0
 11
35.724813845934278
 21
93.085268505144796
 31
0.0
  0
POLYLINE
  5
28B5
  8
0
 66
     1
 10
0.0
 20
0.0
 30
0.0
  0
VERTEX
  5
52C2
  8
0
 10
35.724813845934278
 20
93.085268505144796
 30
0.0
  0
VERTEX
  5
52C3
  8
0
 10
33.518132845934282
 20
92.934839505144808
 30
0.0
  0
VERTEX
  5
52C4
  8
0
 10
32.416310845934291
 20
92.8401585051448
 30
0.0
  0
VERTEX
  5
52C5
  8
0
 10
30.659322845934309
 20
92.654634505144813
 30
0.0
  0
VERTEX
  5
52C6
  8
0
 10
28.907384845934271
 20
92.425836505144844
 30
0.0
  0
VERTEX
  5
52C7
  8
0
 10
27.43240884593428
 20
92.196497505144805
 30
0.0
  0
VERTEX
  5
52C8
  8
0
 10
25.96289584593427
 20
91.934427505144811
 30
0.0
  0
VERTEX
  5
52C9
  8
0
 10
24.346913845934299
 20
91.613573505144799
 30
0.0
  0
VERTEX
  5
52CA
  8
0
 10
22.736058845934281
 20
91.268037505144846
 30
0.0
  0
SEQEND
  5
52CB
  8
0
  0
POLYLINE
  5
28B6
  8
0
 66
     1
 10
0.0
 20
0.0
 30
0.0
  0
VERTEX
  5
52CC
  8
0
 10
22.736058845934281
 20
91.268037505144846
 30
0.0
  0
VERTEX
  5
52CD
  8
0
 10
20.6676538459343
 20
90.788774505144815
 30
0.0
  0
VERTEX
  5
52CE
  8
0
 10
19.63824984593429
 20
90.528925505144812
 30
0.0
  0
VERTEX
  5
52CF
  8
0
 10
18.614125845934272
 20
90.249277505144846
 30
0.0
  0
VERTEX
  5
52D0
  8
0
 10
17.596761845934282
 20
89.946222505144789
 30
0.0
  0
VERTEX
  5
52D1
  8
0
 10
16.586537845934291
 20
89.620012505144814
 30
0.0
  0
SEQEND
  5
52D2
  8
0
  0
LINE
  5
28B7
  8
0
 10
16.586537845934291
 20
89.620012505144814
 30
0.0
 11
16.153020845934279
 21
89.470544505144801
 31
0.0
  0
POLYLINE
  5
28B8
  8
0
 66
     1
 10
0.0
 20
0.0
 30
0.0
  0
VERTEX
  5
52D3
  8
0
 10
16.153020845934279
 20
89.470544505144801
 30
0.0
  0
VERTEX
  5
52D4
  8
0
 10
14.964421845934281
 20
89.038858505144816
 30
0.0
  0
VERTEX
  5
52D5
  8
0
 10
12.59703584593429
 20
88.148538505144785
 30
0.0
  0
SEQEND
  5
52D6
  8
0
  0
LINE
  5
28B9
  8
0
 10
12.59703584593429
 20
88.148538505144785
 30
0.0
 11
12.15715584593428
 21
87.980264505144802
 31
0.0
  0
ARC
  5
28BA
  8
0
 10
21.597325845934279
 20
63.502618505144817
 30
0.0
 40
26.234819000000002
 50
111.0898779999998
 51
113.11886799999991
  0
ARC
  5
28BB
  8
0
 10
17.47788084593429
 20
73.136850505144821
 30
0.0
 40
15.756596
 50
113.0976670000003
 51
116.4200960000008
  0
POLYLINE
  5
28BC
  8
0
 66
     1
 10
0.0
 20
0.0
 30
0.0
  0
VERTEX
  5
52D7
  8
0
 10
10.467046845934281
 20
87.247652505144856
 30
0.0
  0
VERTEX
  5
52D8
  8
0
 10
9.7214408459342838
 20
86.853868505144817
 30
0.0
  0
VERTEX
  5
52D9
  8
0
 10
9.2352348459342863
 20
86.571588505144859
 30
0.0
  0
VERTEX
  5
52DA
  8
0
 10
8.2844298459342856
 20
85.971185505144831
 30
0.0
  0
SEQEND
  5
52DB
  8
0
  0
LINE
  5
28BD
  8
0
 10
8.2844298459342856
 20
85.971185505144831
 30
0.0
 11
7.8663388459342789
 21
85.694353505144804
 31
0.0
  0
LINE
  5
28BE
  8
0
 10
7.8663388459342789
 20
85.694353505144804
 30
0.0
 11
7.456975845934279
 21
85.417886505144779
 31
0.0
  0
ARC
  5
28BF
  8
0
 10
26.372365845934279
 20
57.460336505144816
 30
0.0
 40
33.755140000000011
 50
124.08130100000039
 51
125.3657859999994
  0
LINE
  5
28C0
  8
0
 10
6.8351348459342756
 20
84.986688505144798
 30
0.0
 11
6.6271418459342879
 21
84.836694505144791
 31
0.0
  0
LINE
  5
28C1
  8
0
 10
6.6271418459342879
 20
84.836694505144791
 30
0.0
 11
6.413198845934275
 21
84.67862150514479
 31
0.0
  0
LINE
  5
28C2
  8
0
 10
6.413198845934275
 20
84.67862150514479
 30
0.0
 11
6.1903588459342842
 21
84.509424505144807
 31
0.0
  0
LINE
  5
28C3
  8
0
 10
6.1903588459342842
 20
84.509424505144807
 30
0.0
 11
5.9585928459342892
 21
84.327165505144819
 31
0.0
  0
ARC
  5
28C4
  8
0
 10
16.755391845934302
 20
70.83994550514484
 30
0.0
 40
17.276416000000001
 50
128.67801799999961
 51
130.11571799999891
  0
ARC
  5
28C5
  8
0
 10
12.87636384593428
 20
75.548593505144822
 30
0.0
 40
11.176515999999999
 50
130.46164000000061
 51
134.66294400000041
  0
LINE
  5
28C6
  8
0
 10
5.0198118459342851
 20
83.498132505144824
 30
0.0
 11
4.9870508459342764
 21
83.459879505144826
 31
0.0
  0
LINE
  5
28C7
  8
0
 10
4.9870508459342764
 20
83.459879505144826
 30
0.0
 11
8.6500608459342772
 21
84.100496505144775
 31
0.0
  0
LINE
  5
28C8
  8
0
 10
8.6500608459342772
 20
84.100496505144775
 30
0.0
 11
8.9952298459342916
 21
82.126794505144801
 31
0.0
  0
LINE
  5
28C9
  8
0
 10
8.9952298459342916
 20
82.126794505144801
 30
0.0
 11
9.1158198459342792
 21
82.128290505144818
 31
0.0
  0
POLYLINE
  5
28CA
  8
0
 66
     1
 10
0.0
 20
0.0
 30
0.0
  0
VERTEX
  5
52DC
  8
0
 10
9.1158198459342792
 20
82.128290505144818
 30
0.0
  0
VERTEX
  5
52DD
  8
0
 10
11.21677184593427
 20
82.182527505144819
 30
0.0
  0
VERTEX
  5
52DE
  8
0
 10
12.26625584593428
 20
82.23577350514482
 30
0.0
  0
VERTEX
  5
52DF
  8
0
 10
13.83899484593428
 20
82.34682650514479
 30
0.0
  0
VERTEX
  5
52E0
  8
0
 10
15.05512084593428
 20
82.451753505144822
 30
0.0
  0
VERTEX
  5
52E1
  8
0
 10
16.269734845934291
 20
82.570841505144813
 30
0.0
  0
SEQEND
  5
52E2
  8
0
  0
POLYLINE
  5
28CB
  8
0
 66
     1
 10
0.0
 20
0.0
 30
0.0
  0
VERTEX
  5
52E3
  8
0
 10
16.269734845934291
 20
82.570841505144813
 30
0.0
  0
VERTEX
  5
52E4
  8
0
 10
19.39398784593428
 20
82.916452505144818
 30
0.0
  0
VERTEX
  5
52E5
  8
0
 10
21.477391845934282
 20
83.140779505144849
 30
0.0
  0
VERTEX
  5
52E6
  8
0
 10
24.60126284593429
 20
83.411638505144793
 30
0.0
  0
VERTEX
  5
52E7
  8
0
 10
25.99027084593428
 20
83.505319505144811
 30
0.0
  0
VERTEX
  5
52E8
  8
0
 10
28.769795845934311
 20
83.671266505144828
 30
0.0
  0
SEQEND
  5
52E9
  8
0
  0
POLYLINE
  5
28CC
  8
0
 66
     1
 10
0.0
 20
0.0
 30
0.0
  0
VERTEX
  5
52EA
  8
0
 10
28.769795845934311
 20
83.671266505144828
 30
0.0
  0
VERTEX
  5
52EB
  8
0
 10
34.785771845934292
 20
84.026849505144824
 30
0.0
  0
VERTEX
  5
52EC
  8
0
 10
37.794011845934278
 20
84.200128505144832
 30
0.0
  0
VERTEX
  5
52ED
  8
0
 10
42.307378845934302
 20
84.439539505144793
 30
0.0
  0
VERTEX
  5
52EE
  8
0
 10
46.251348845934288
 20
84.618295505144829
 30
0.0
  0
VERTEX
  5
52EF
  8
0
 10
50.196721845934277
 20
84.764871505144811
 30
0.0
  0
VERTEX
  5
52F0
  8
0
 10
54.957768845934282
 20
84.905412505144781
 30
0.0
  0
VERTEX
  5
52F1
  8
0
 10
59.719747845934272
 20
85.010584505144834
 30
0.0
  0
VERTEX
  5
52F2
  8
0
 10
64.482320845934282
 20
85.079645505144811
 30
0.0
  0
VERTEX
  5
52F3
  8
0
 10
68.054509845934291
 20
85.106851505144832
 30
0.0
  0
VERTEX
  5
52F4
  8
0
 10
71.6268058459343
 20
85.11345850514482
 30
0.0
  0
VERTEX
  5
52F5
  8
0
 10
77.417760845934268
 20
85.085130505144818
 30
0.0
  0
VERTEX
  5
52F6
  8
0
 10
83.208348845934296
 20
85.013940505144816
 30
0.0
  0
VERTEX
  5
52F7
  8
0
 10
89.025334845934239
 20
84.906587505144813
 30
0.0
  0
VERTEX
  5
52F8
  8
0
 10
94.841741845934266
 20
84.771539505144801
 30
0.0
  0
VERTEX
  5
52F9
  8
0
 10
100.1995908459343
 20
84.628641505144842
 30
0.0
  0
VERTEX
  5
52FA
  8
0
 10
106.7985288459343
 20
84.42350250514481
 30
0.0
  0
SEQEND
  5
52FB
  8
0
  0
LINE
  5
28CD
  8
0
 10
43.724813845934271
 20
88.093729505144822
 30
0.0
 11
35.724813845934278
 21
88.093729505144822
 31
0.0
  0
LINE
  5
28CE
  8
0
 10
35.724813845934278
 20
88.093729505144822
 30
0.0
 11
35.724813845934278
 21
86.093729505144807
 31
0.0
  0
LINE
  5
28CF
  8
0
 10
35.724813845934278
 20
86.093729505144807
 30
0.0
 11
43.724813845934271
 21
86.093729505144807
 31
0.0
  0
LINE
  5
28D0
  8
0
 10
43.724813845934271
 20
86.093729505144807
 30
0.0
 11
43.724813845934271
 21
88.093729505144822
 31
0.0
  0
ARC
  5
28D1
  8
0
 10
130.27114565127999
 20
68.16656534444239
 30
0.0
 40
2.049999999999998
 50
0.0
 51
180.0000050000005
  0
ARC
  5
28D2
  8
0
 10
130.27114565127999
 20
68.16656534444239
 30
0.0
 40
2.049999999999998
 50
180.0000050000005
 51
0.0
  0
ARC
  5
28D3
  8
0
 10
172.27114565127999
 20
70.054031344442365
 30
0.0
 40
2.049999999999998
 50
0.0
 51
180.0000050000005
  0
ARC
  5
28D4
  8
0
 10
172.27114565127999
 20
70.054031344442365
 30
0.0
 40
2.049999999999998
 50
180.0000050000005
 51
0.0
  0
ARC
  5
28D5
  8
0
 10
178.38215265127999
 20
69.211090344442368
 30
0.0
 40
0.75
 50
180.0000050000005
 51
0.0
  0
ARC
  5
28D6
  8
0
 10
178.38215265127999
 20
69.211090344442368
 30
0.0
 40
0.75
 50
0.0
 51
180.0000050000005
  0
ARC
  5
28D7
  8
0
 10
181.38198465127999
 20
69.17918434444239
 30
0.0
 40
0.75
 50
0.0
 51
180.0000050000005
  0
ARC
  5
28D8
  8
0
 10
181.38198465127999
 20
69.17918434444239
 30
0.0
 40
0.75
 50
180.0000050000005
 51
0.0
  0
LINE
  5
28D9
  8
0
 10
216.34486065127999
 20
65.024567344442403
 30
0.0
 11
216.34486065127999
 21
62.727859344442393
 31
0.0
  0
LINE
  5
28DA
  8
0
 10
216.34486065127999
 20
62.727859344442393
 30
0.0
 11
233.31614365127999
 21
62.727859344442393
 31
0.0
  0
LINE
  5
28DB
  8
0
 10
233.31614365127999
 20
62.727859344442393
 30
0.0
 11
233.31614365127999
 21
64.038704344442394
 31
0.0
  0
LINE
  5
28DC
  8
0
 10
233.31614365127999
 20
64.038704344442394
 30
0.0
 11
221.34486065127999
 21
64.868385344442402
 31
0.0
  0
LINE
  5
28DD
  8
0
 10
221.34486065127999
 20
64.868385344442402
 30
0.0
 11
221.41399765128
 21
65.865997344442405
 31
0.0
  0
LINE
  5
28DE
  8
0
 10
221.41399765128
 20
65.865997344442405
 30
0.0
 11
223.4092066512801
 21
65.727715344442402
 31
0.0
  0
LINE
  5
28DF
  8
0
 10
223.4092066512801
 20
65.727715344442402
 30
0.0
 11
223.41378465128
 21
65.793610344442385
 31
0.0
  0
POLYLINE
  5
28E0
  8
0
 66
     1
 10
0.0
 20
0.0
 30
0.0
  0
VERTEX
  5
52FC
  8
0
 10
223.41378465128
 20
65.793610344442385
 30
0.0
  0
VERTEX
  5
52FD
  8
0
 10
219.08514065128
 20
66.59471134444243
 30
0.0
  0
VERTEX
  5
52FE
  8
0
 10
214.38067265128001
 20
67.421906344442391
 30
0.0
  0
VERTEX
  5
52FF
  8
0
 10
204.95591365128001
 20
69.054321344442428
 30
0.0
  0
VERTEX
  5
5300
  8
0
 10
200.26279865128001
 20
69.849838344442389
 30
0.0
  0
VERTEX
  5
5301
  8
0
 10
195.16317365128
 20
70.677597344442404
 30
0.0
  0
VERTEX
  5
5302
  8
0
 10
192.61854165128
 20
71.064133344442382
 30
0.0
  0
VERTEX
  5
5303
  8
0
 10
189.08881765128001
 20
71.559097344442421
 30
0.0
  0
VERTEX
  5
5304
  8
0
 10
185.55993265128001
 20
71.998299344442444
 30
0.0
  0
VERTEX
  5
5305
  8
0
 10
181.8737456512799
 20
72.39624034444239
 30
0.0
  0
VERTEX
  5
5306
  8
0
 10
178.17974465128
 20
72.742935344442401
 30
0.0
  0
VERTEX
  5
5307
  8
0
 10
173.50408565128001
 20
73.125290344442433
 30
0.0
  0
VERTEX
  5
5308
  8
0
 10
168.83689565128
 20
73.441811344442371
 30
0.0
  0
VERTEX
  5
5309
  8
0
 10
166.49833365128001
 20
73.573074344442432
 30
0.0
  0
VERTEX
  5
530A
  8
0
 10
164.15378965127999
 20
73.684509344442404
 30
0.0
  0
VERTEX
  5
530B
  8
0
 10
160.68124065128001
 20
73.808151344442422
 30
0.0
  0
VERTEX
  5
530C
  8
0
 10
157.21932665128
 20
73.878769344442404
 30
0.0
  0
VERTEX
  5
530D
  8
0
 10
153.27114565127999
 20
73.89531734444239
 30
0.0
  0
SEQEND
  5
530E
  8
0
  0
LINE
  5
28E1
  8
0
 10
153.27114565127999
 20
73.89531734444239
 30
0.0
 11
153.27114565127999
 21
71.786331344442374
 31
0.0
  0
LINE
  5
28E2
  8
0
 10
153.27114565127999
 20
71.786331344442374
 30
0.0
 11
145.27114565127999
 21
71.786331344442374
 31
0.0
  0
LINE
  5
28E3
  8
0
 10
145.27114565127999
 20
71.786331344442374
 30
0.0
 11
145.27114565127999
 21
73.686333344442403
 31
0.0
  0
POLYLINE
  5
28E4
  8
0
 66
     1
 10
0.0
 20
0.0
 30
0.0
  0
VERTEX
  5
530F
  8
0
 10
145.27114565127999
 20
73.686333344442403
 30
0.0
  0
VERTEX
  5
5310
  8
0
 10
143.06446465127999
 20
73.535904344442372
 30
0.0
  0
VERTEX
  5
5311
  8
0
 10
141.96264265127999
 20
73.441223344442378
 30
0.0
  0
VERTEX
  5
5312
  8
0
 10
140.20565465128001
 20
73.255699344442405
 30
0.0
  0
VERTEX
  5
5313
  8
0
 10
138.45371665127999
 20
73.026901344442422
 30
0.0
  0
VERTEX
  5
5314
  8
0
 10
136.97874065127999
 20
72.797562344442383
 30
0.0
  0
VERTEX
  5
5315
  8
0
 10
135.50922765128001
 20
72.535492344442403
 30
0.0
  0
VERTEX
  5
5316
  8
0
 10
133.89324565128001
 20
72.214638344442378
 30
0.0
  0
VERTEX
  5
5317
  8
0
 10
132.28239065128
 20
71.86910234444241
 30
0.0
  0
SEQEND
  5
5318
  8
0
  0
POLYLINE
  5
28E5
  8
0
 66
     1
 10
0.0
 20
0.0
 30
0.0
  0
VERTEX
  5
5319
  8
0
 10
132.28239065128
 20
71.86910234444241
 30
0.0
  0
VERTEX
  5
531A
  8
0
 10
130.21398565128001
 20
71.389839344442393
 30
0.0
  0
VERTEX
  5
531B
  8
0
 10
129.18458165128001
 20
71.129990344442376
 30
0.0
  0
VERTEX
  5
531C
  8
0
 10
128.16045765128001
 20
70.850342344442424
 30
0.0
  0
VERTEX
  5
531D
  8
0
 10
127.14309365128
 20
70.54728734444241
 30
0.0
  0
VERTEX
  5
531E
  8
0
 10
126.13286965128
 20
70.221077344442392
 30
0.0
  0
SEQEND
  5
531F
  8
0
  0
LINE
  5
28E6
  8
0
 10
126.13286965128
 20
70.221077344442392
 30
0.0
 11
125.69935265127999
 21
70.071609344442393
 31
0.0
  0
POLYLINE
  5
28E7
  8
0
 66
     1
 10
0.0
 20
0.0
 30
0.0
  0
VERTEX
  5
5320
  8
0
 10
125.69935265127999
 20
70.071609344442393
 30
0.0
  0
VERTEX
  5
5321
  8
0
 10
124.51075365128
 20
69.639923344442423
 30
0.0
  0
VERTEX
  5
5322
  8
0
 10
122.14336765128
 20
68.749603344442392
 30
0.0
  0
SEQEND
  5
5323
  8
0
  0
LINE
  5
28E8
  8
0
 10
122.14336765128
 20
68.749603344442392
 30
0.0
 11
121.70348765128
 21
68.581329344442395
 31
0.0
  0
ARC
  5
28E9
  8
0
 10
131.14365765127999
 20
44.103683344442388
 30
0.0
 40
26.234819000000002
 50
111.0898779999997
 51
113.11886799999991
  0
ARC
  5
28EA
  8
0
 10
127.02421265128
 20
53.737915344442399
 30
0.0
 40
15.756596
 50
113.0976670000005
 51
116.4200960000008
  0
POLYLINE
  5
28EB
  8
0
 66
     1
 10
0.0
 20
0.0
 30
0.0
  0
VERTEX
  5
5324
  8
0
 10
120.01337865127999
 20
67.848717344442434
 30
0.0
  0
VERTEX
  5
5325
  8
0
 10
119.26777265128
 20
67.454933344442395
 30
0.0
  0
VERTEX
  5
5326
  8
0
 10
118.78156665128
 20
67.172653344442438
 30
0.0
  0
VERTEX
  5
5327
  8
0
 10
117.83076165128
 20
66.572250344442409
 30
0.0
  0
SEQEND
  5
5328
  8
0
  0
LINE
  5
28EC
  8
0
 10
117.83076165128
 20
66.572250344442409
 30
0.0
 11
117.41267065128
 21
66.295418344442396
 31
0.0
  0
LINE
  5
28ED
  8
0
 10
117.41267065128
 20
66.295418344442396
 30
0.0
 11
117.00330765128
 21
66.018951344442371
 31
0.0
  0
ARC
  5
28EE
  8
0
 10
135.91869765128001
 20
38.061401344442402
 30
0.0
 40
33.755140000000011
 50
124.08130100000059
 51
125.3657859999994
  0
LINE
  5
28EF
  8
0
 10
116.38146665127999
 20
65.58775334444239
 30
0.0
 11
116.17347365128001
 21
65.437759344442384
 31
0.0
  0
LINE
  5
28F0
  8
0
 10
116.17347365128001
 20
65.437759344442384
 30
0.0
 11
115.95953065128001
 21
65.279686344442382
 31
0.0
  0
LINE
  5
28F1
  8
0
 10
115.95953065128001
 20
65.279686344442382
 30
0.0
 11
115.73669065128
 21
65.110489344442385
 31
0.0
  0
LINE
  5
28F2
  8
0
 10
115.73669065128
 20
65.110489344442385
 30
0.0
 11
115.50492465128001
 21
64.928230344442383
 31
0.0
  0
ARC
  5
28F3
  8
0
 10
126.30172365128
 20
51.441010344442432
 30
0.0
 40
17.276416000000001
 50
128.6780179999993
 51
130.11571799999999
  0
ARC
  5
28F4
  8
0
 10
122.42269565127999
 20
56.149658344442393
 30
0.0
 40
11.176515999999999
 50
130.46164000000019
 51
134.66294400000021
  0
LINE
  5
28F5
  8
0
 10
114.56614365128
 20
64.09919734444243
 30
0.0
 11
114.53338265127999
 21
64.06094434444239
 31
0.0
  0
LINE
  5
28F6
  8
0
 10
114.53338265127999
 20
64.06094434444239
 30
0.0
 11
118.19639265127999
 21
64.701561344442382
 31
0.0
  0
LINE
  5
28F7
  8
0
 10
118.19639265127999
 20
64.701561344442382
 30
0.0
 11
118.54156165128001
 21
62.727859344442393
 31
0.0
  0
LINE
  5
28F8
  8
0
 10
118.54156165128001
 20
62.727859344442393
 30
0.0
 11
118.66215165128
 21
62.729355344442403
 31
0.0
  0
POLYLINE
  5
28F9
  8
0
 66
     1
 10
0.0
 20
0.0
 30
0.0
  0
VERTEX
  5
5329
  8
0
 10
118.66215165128
 20
62.729355344442403
 30
0.0
  0
VERTEX
  5
532A
  8
0
 10
120.76310365128001
 20
62.783592344442397
 30
0.0
  0
VERTEX
  5
532B
  8
0
 10
121.81258765128
 20
62.836838344442398
 30
0.0
  0
VERTEX
  5
532C
  8
0
 10
123.38532665128
 20
62.94789134444239
 30
0.0
  0
VERTEX
  5
532D
  8
0
 10
124.60145265128
 20
63.0528183444424
 30
0.0
  0
VERTEX
  5
532E
  8
0
 10
125.81606665128
 20
63.171906344442377
 30
0.0
  0
SEQEND
  5
532F
  8
0
  0
POLYLINE
  5
28FA
  8
0
 66
     1
 10
0.0
 20
0.0
 30
0.0
  0
VERTEX
  5
5330
  8
0
 10
125.81606665128
 20
63.171906344442377
 30
0.0
  0
VERTEX
  5
5331
  8
0
 10
128.94031965127999
 20
63.517517344442403
 30
0.0
  0
VERTEX
  5
5332
  8
0
 10
131.02372365127999
 20
63.74184434444242
 30
0.0
  0
VERTEX
  5
5333
  8
0
 10
134.14759465128
 20
64.0127033444424
 30
0.0
  0
VERTEX
  5
5334
  8
0
 10
135.53660265127999
 20
64.10638434444239
 30
0.0
  0
VERTEX
  5
5335
  8
0
 10
138.31612765128
 20
64.272331344442421
 30
0.0
  0
SEQEND
  5
5336
  8
0
  0
POLYLINE
  5
28FB
  8
0
 66
     1
 10
0.0
 20
0.0
 30
0.0
  0
VERTEX
  5
5337
  8
0
 10
138.31612765128
 20
64.272331344442421
 30
0.0
  0
VERTEX
  5
5338
  8
0
 10
144.33210365127999
 20
64.627914344442374
 30
0.0
  0
VERTEX
  5
5339
  8
0
 10
147.34034365127999
 20
64.801193344442424
 30
0.0
  0
VERTEX
  5
533A
  8
0
 10
151.85371065128001
 20
65.040604344442386
 30
0.0
  0
VERTEX
  5
533B
  8
0
 10
155.79768065127999
 20
65.219360344442407
 30
0.0
  0
VERTEX
  5
533C
  8
0
 10
159.74305365128001
 20
65.365936344442389
 30
0.0
  0
VERTEX
  5
533D
  8
0
 10
164.50410065128
 20
65.506477344442374
 30
0.0
  0
VERTEX
  5
533E
  8
0
 10
169.26607965127999
 20
65.611649344442412
 30
0.0
  0
VERTEX
  5
533F
  8
0
 10
174.02865265128
 20
65.680710344442389
 30
0.0
  0
VERTEX
  5
5340
  8
0
 10
177.60084165128001
 20
65.707916344442424
 30
0.0
  0
VERTEX
  5
5341
  8
0
 10
181.17313765128
 20
65.714523344442398
 30
0.0
  0
VERTEX
  5
5342
  8
0
 10
186.96409265128
 20
65.68619534444241
 30
0.0
  0
VERTEX
  5
5343
  8
0
 10
192.75468065128001
 20
65.615005344442409
 30
0.0
  0
VERTEX
  5
5344
  8
0
 10
198.57166665128
 20
65.507652344442405
 30
0.0
  0
VERTEX
  5
5345
  8
0
 10
204.38807365128
 20
65.372604344442394
 30
0.0
  0
VERTEX
  5
5346
  8
0
 10
209.74592265128001
 20
65.229706344442434
 30
0.0
  0
VERTEX
  5
5347
  8
0
 10
216.34486065127999
 20
65.024567344442403
 30
0.0
  0
SEQEND
  5
5348
  8
0
  0
LINE
  5
28FC
  8
0
 10
153.27114565127999
 20
68.694794344442428
 30
0.0
 11
145.27114565127999
 21
68.694794344442428
 31
0.0
  0
LINE
  5
28FD
  8
0
 10
145.27114565127999
 20
68.694794344442428
 30
0.0
 11
145.27114565127999
 21
66.694794344442428
 31
0.0
  0
LINE
  5
28FE
  8
0
 10
145.27114565127999
 20
66.694794344442428
 30
0.0
 11
153.27114565127999
 21
66.694794344442428
 31
0.0
  0
LINE
  5
28FF
  8
0
 10
153.27114565127999
 20
66.694794344442428
 30
0.0
 11
153.27114565127999
 21
68.694794344442428
 31
0.0
  0
ARC
  5
2966
  8
0
 10
131.530694335064
 20
79.462990998283473
 30
0.0
 40
2.049999999999998
 50
0.0
 51
180.0000050000005
  0
ARC
  5
2967
  8
0
 10
131.530694335064
 20
79.462990998283473
 30
0.0
 40
2.049999999999998
 50
180.0000050000005
 51
0.0
  0
ARC
  5
2968
  8
0
 10
173.530694335064
 20
81.350449998283452
 30
0.0
 40
2.049999999999998
 50
0.0
 51
180.0000050000005
  0
ARC
  5
2969
  8
0
 10
173.530694335064
 20
81.350449998283452
 30
0.0
 40
2.049999999999998
 50
180.0000050000005
 51
0.0
  0
ARC
  5
296A
  8
0
 10
179.641701335064
 20
81.031510998283451
 30
0.0
 40
0.75
 50
180.0000050000005
 51
0.0
  0
ARC
  5
296B
  8
0
 10
179.641701335064
 20
81.031510998283451
 30
0.0
 40
0.75
 50
0.0
 51
180.0000050000005
  0
ARC
  5
296C
  8
0
 10
182.641533335064
 20
80.999604998283459
 30
0.0
 40
0.75
 50
179.9999949999995
 51
0.0
  0
ARC
  5
296D
  8
0
 10
182.641533335064
 20
80.999604998283459
 30
0.0
 40
0.75
 50
0.0
 51
179.9999949999995
  0
ARC
  5
296E
  8
0
 10
185.62488633506399
 20
80.684113998283522
 30
0.0
 40
0.75
 50
0.0
 51
180.0000050000005
  0
ARC
  5
296F
  8
0
 10
185.62488633506399
 20
80.684113998283522
 30
0.0
 40
0.75
 50
180.0000050000005
 51
0.0
  0
LINE
  5
2970
  8
0
 10
217.6044093350641
 20
76.8449879982835
 30
0.0
 11
217.6044093350641
 21
74.548279998283476
 31
0.0
  0
LINE
  5
2971
  8
0
 10
217.6044093350641
 20
74.548279998283476
 30
0.0
 11
234.5756923350641
 21
74.548279998283476
 31
0.0
  0
LINE
  5
2972
  8
0
 10
234.5756923350641
 20
74.548279998283476
 30
0.0
 11
234.5756923350641
 21
75.859124998283505
 31
0.0
  0
LINE
  5
2973
  8
0
 10
234.5756923350641
 20
75.859124998283505
 30
0.0
 11
222.60440933506399
 21
76.688805998283499
 31
0.0
  0
LINE
  5
2974
  8
0
 10
222.60440933506399
 20
76.688805998283499
 30
0.0
 11
222.67354633506409
 21
77.686417998283503
 31
0.0
  0
LINE
  5
2975
  8
0
 10
222.67354633506409
 20
77.686417998283503
 30
0.0
 11
224.66875533506411
 21
77.548135998283499
 31
0.0
  0
LINE
  5
2976
  8
0
 10
224.66875533506411
 20
77.548135998283499
 30
0.0
 11
224.67333333506409
 21
77.614030998283496
 31
0.0
  0
POLYLINE
  5
2977
  8
0
 66
     1
 10
0.0
 20
0.0
 30
0.0
  0
VERTEX
  5
5349
  8
0
 10
224.67333333506409
 20
77.614030998283496
 30
0.0
  0
VERTEX
  5
534A
  8
0
 10
220.34468933506409
 20
78.415131998283499
 30
0.0
  0
VERTEX
  5
534B
  8
0
 10
215.6402213350641
 20
79.242326998283474
 30
0.0
  0
VERTEX
  5
534C
  8
0
 10
206.21546233506399
 20
80.874741998283525
 30
0.0
  0
VERTEX
  5
534D
  8
0
 10
201.5223473350641
 20
81.670258998283487
 30
0.0
  0
VERTEX
  5
534E
  8
0
 10
196.42272233506401
 20
82.498017998283501
 30
0.0
  0
VERTEX
  5
534F
  8
0
 10
193.878090335064
 20
82.884553998283494
 30
0.0
  0
VERTEX
  5
5350
  8
0
 10
190.34836633506399
 20
83.379517998283504
 30
0.0
  0
VERTEX
  5
5351
  8
0
 10
186.81948133506401
 20
83.818719998283527
 30
0.0
  0
VERTEX
  5
5352
  8
0
 10
183.13329433506399
 20
84.216660998283487
 30
0.0
  0
VERTEX
  5
5353
  8
0
 10
179.43929333506401
 20
84.563355998283484
 30
0.0
  0
VERTEX
  5
5354
  8
0
 10
174.76363433506401
 20
84.945710998283502
 30
0.0
  0
VERTEX
  5
5355
  8
0
 10
170.09644433506401
 20
85.262231998283497
 30
0.0
  0
VERTEX
  5
5356
  8
0
 10
167.75788233506401
 20
85.393494998283501
 30
0.0
  0
VERTEX
  5
5357
  8
0
 10
165.413338335064
 20
85.504929998283501
 30
0.0
  0
VERTEX
  5
5358
  8
0
 10
161.94078933506401
 20
85.628571998283519
 30
0.0
  0
VERTEX
  5
5359
  8
0
 10
158.478875335064
 20
85.699189998283487
 30
0.0
  0
VERTEX
  5
535A
  8
0
 10
154.530694335064
 20
85.715737998283487
 30
0.0
  0
SEQEND
  5
535B
  8
0
  0
LINE
  5
2978
  8
0
 10
154.530694335064
 20
85.715737998283487
 30
0.0
 11
154.530694335064
 21
83.606751998283485
 31
0.0
  0
LINE
  5
2979
  8
0
 10
154.530694335064
 20
83.606751998283485
 30
0.0
 11
146.530694335064
 21
83.606751998283485
 31
0.0
  0
LINE
  5
297A
  8
0
 10
146.530694335064
 20
83.606751998283485
 30
0.0
 11
146.530694335064
 21
85.5067539982835
 31
0.0
  0
POLYLINE
  5
297B
  8
0
 66
     1
 10
0.0
 20
0.0
 30
0.0
  0
VERTEX
  5
535C
  8
0
 10
146.530694335064
 20
85.5067539982835
 30
0.0
  0
VERTEX
  5
535D
  8
0
 10
144.324013335064
 20
85.356324998283469
 30
0.0
  0
VERTEX
  5
535E
  8
0
 10
143.222191335064
 20
85.261643998283503
 30
0.0
  0
VERTEX
  5
535F
  8
0
 10
141.46520333506399
 20
85.076119998283502
 30
0.0
  0
VERTEX
  5
5360
  8
0
 10
139.71326533506399
 20
84.847321998283519
 30
0.0
  0
VERTEX
  5
5361
  8
0
 10
138.238289335064
 20
84.61798299828348
 30
0.0
  0
VERTEX
  5
5362
  8
0
 10
136.76877633506399
 20
84.355912998283486
 30
0.0
  0
VERTEX
  5
5363
  8
0
 10
135.1527943350641
 20
84.035058998283503
 30
0.0
  0
VERTEX
  5
5364
  8
0
 10
133.541939335064
 20
83.689522998283479
 30
0.0
  0
SEQEND
  5
5365
  8
0
  0
POLYLINE
  5
297C
  8
0
 66
     1
 10
0.0
 20
0.0
 30
0.0
  0
VERTEX
  5
5366
  8
0
 10
133.541939335064
 20
83.689522998283479
 30
0.0
  0
VERTEX
  5
5367
  8
0
 10
131.4735343350641
 20
83.210259998283505
 30
0.0
  0
VERTEX
  5
5368
  8
0
 10
130.4441303350641
 20
82.950410998283473
 30
0.0
  0
VERTEX
  5
5369
  8
0
 10
129.42000633506399
 20
82.670762998283507
 30
0.0
  0
VERTEX
  5
536A
  8
0
 10
128.402642335064
 20
82.367707998283464
 30
0.0
  0
VERTEX
  5
536B
  8
0
 10
127.39241833506399
 20
82.041497998283475
 30
0.0
  0
SEQEND
  5
536C
  8
0
  0
LINE
  5
297D
  8
0
 10
127.39241833506399
 20
82.041497998283475
 30
0.0
 11
126.958901335064
 21
81.892029998283476
 31
0.0
  0
POLYLINE
  5
297E
  8
0
 66
     1
 10
0.0
 20
0.0
 30
0.0
  0
VERTEX
  5
536D
  8
0
 10
126.958901335064
 20
81.892029998283476
 30
0.0
  0
VERTEX
  5
536E
  8
0
 10
125.770302335064
 20
81.460343998283506
 30
0.0
  0
VERTEX
  5
536F
  8
0
 10
123.40291633506401
 20
80.570023998283474
 30
0.0
  0
SEQEND
  5
5370
  8
0
  0
LINE
  5
297F
  8
0
 10
123.40291633506401
 20
80.570023998283474
 30
0.0
 11
122.963036335064
 21
80.401749998283506
 31
0.0
  0
ARC
  5
2980
  8
0
 10
132.403206335064
 20
55.924103998283499
 30
0.0
 40
26.234819000000002
 50
111.0898779999997
 51
113.11886799999991
  0
ARC
  5
2981
  8
0
 10
128.28376133506401
 20
65.558335998283496
 30
0.0
 40
15.756596
 50
113.0976670000004
 51
116.4200960000006
  0
POLYLINE
  5
2982
  8
0
 66
     1
 10
0.0
 20
0.0
 30
0.0
  0
VERTEX
  5
5371
  8
0
 10
121.272927335064
 20
79.669137998283546
 30
0.0
  0
VERTEX
  5
5372
  8
0
 10
120.527321335064
 20
79.275353998283464
 30
0.0
  0
VERTEX
  5
5373
  8
0
 10
120.04111533506401
 20
78.993073998283549
 30
0.0
  0
VERTEX
  5
5374
  8
0
 10
119.090310335064
 20
78.392670998283506
 30
0.0
  0
SEQEND
  5
5375
  8
0
  0
LINE
  5
2983
  8
0
 10
119.090310335064
 20
78.392670998283506
 30
0.0
 11
118.6722193350639
 21
78.115838998283479
 31
0.0
  0
LINE
  5
2984
  8
0
 10
118.6722193350639
 20
78.115838998283479
 30
0.0
 11
118.262856335064
 21
77.839371998283454
 31
0.0
  0
ARC
  5
2985
  8
0
 10
137.17824633506399
 20
49.881821998283499
 30
0.0
 40
33.755140000000011
 50
124.08130100000039
 51
125.3657859999992
  0
LINE
  5
2986
  8
0
 10
117.641015335064
 20
77.408173998283473
 30
0.0
 11
117.433022335064
 21
77.258179998283481
 31
0.0
  0
LINE
  5
2987
  8
0
 10
117.433022335064
 20
77.258179998283481
 30
0.0
 11
117.219079335064
 21
77.100106998283479
 31
0.0
  0
LINE
  5
2988
  8
0
 10
117.219079335064
 20
77.100106998283479
 30
0.0
 11
116.996239335064
 21
76.930909998283482
 31
0.0
  0
LINE
  5
2989
  8
0
 10
116.996239335064
 20
76.930909998283482
 30
0.0
 11
116.7644733350641
 21
76.74865099828348
 31
0.0
  0
ARC
  5
298A
  8
0
 10
127.561272335064
 20
63.261430998283501
 30
0.0
 40
17.276416000000001
 50
128.67801799999941
 51
130.11571799999999
  0
ARC
  5
298B
  8
0
 10
123.682244335064
 20
67.970078998283498
 30
0.0
 40
11.176515999999999
 50
130.46164000000039
 51
134.66294400000029
  0
LINE
  5
298C
  8
0
 10
115.82569233506401
 20
75.919617998283499
 30
0.0
 11
115.792931335064
 21
75.881364998283502
 31
0.0
  0
LINE
  5
298D
  8
0
 10
115.792931335064
 20
75.881364998283502
 30
0.0
 11
119.455941335064
 21
76.521981998283451
 31
0.0
  0
LINE
  5
298E
  8
0
 10
119.455941335064
 20
76.521981998283451
 30
0.0
 11
119.801110335064
 21
74.548279998283476
 31
0.0
  0
LINE
  5
298F
  8
0
 10
119.801110335064
 20
74.548279998283476
 30
0.0
 11
119.921700335064
 21
74.549775998283479
 31
0.0
  0
POLYLINE
  5
2990
  8
0
 66
     1
 10
0.0
 20
0.0
 30
0.0
  0
VERTEX
  5
5376
  8
0
 10
119.921700335064
 20
74.549775998283479
 30
0.0
  0
VERTEX
  5
5377
  8
0
 10
122.022652335064
 20
74.604012998283523
 30
0.0
  0
VERTEX
  5
5378
  8
0
 10
123.072136335064
 20
74.657258998283524
 30
0.0
  0
VERTEX
  5
5379
  8
0
 10
124.644875335064
 20
74.76831199828348
 30
0.0
  0
VERTEX
  5
537A
  8
0
 10
125.861001335064
 20
74.873238998283497
 30
0.0
  0
VERTEX
  5
537B
  8
0
 10
127.075615335064
 20
74.992326998283488
 30
0.0
  0
SEQEND
  5
537C
  8
0
  0
POLYLINE
  5
2991
  8
0
 66
     1
 10
0.0
 20
0.0
 30
0.0
  0
VERTEX
  5
537D
  8
0
 10
127.075615335064
 20
74.992326998283488
 30
0.0
  0
VERTEX
  5
537E
  8
0
 10
130.199868335064
 20
75.337937998283522
 30
0.0
  0
VERTEX
  5
537F
  8
0
 10
132.283272335064
 20
75.562264998283524
 30
0.0
  0
VERTEX
  5
5380
  8
0
 10
135.40714333506401
 20
75.833123998283483
 30
0.0
  0
VERTEX
  5
5381
  8
0
 10
136.796151335064
 20
75.926804998283501
 30
0.0
  0
VERTEX
  5
5382
  8
0
 10
139.57567633506409
 20
76.092751998283518
 30
0.0
  0
SEQEND
  5
5383
  8
0
  0
POLYLINE
  5
2992
  8
0
 66
     1
 10
0.0
 20
0.0
 30
0.0
  0
VERTEX
  5
5384
  8
0
 10
139.57567633506409
 20
76.092751998283518
 30
0.0
  0
VERTEX
  5
5385
  8
0
 10
145.591652335064
 20
76.448334998283485
 30
0.0
  0
VERTEX
  5
5386
  8
0
 10
148.599892335064
 20
76.621613998283522
 30
0.0
  0
VERTEX
  5
5387
  8
0
 10
153.1132593350641
 20
76.861024998283483
 30
0.0
  0
VERTEX
  5
5388
  8
0
 10
157.05722933506399
 20
77.039780998283504
 30
0.0
  0
VERTEX
  5
5389
  8
0
 10
161.00260233506401
 20
77.186356998283486
 30
0.0
  0
VERTEX
  5
538A
  8
0
 10
165.763649335064
 20
77.326897998283471
 30
0.0
  0
VERTEX
  5
538B
  8
0
 10
170.525628335064
 20
77.432069998283524
 30
0.0
  0
VERTEX
  5
538C
  8
0
 10
175.288201335064
 20
77.501130998283486
 30
0.0
  0
VERTEX
  5
538D
  8
0
 10
178.86039033506401
 20
77.528336998283521
 30
0.0
  0
VERTEX
  5
538E
  8
0
 10
182.43268633506401
 20
77.534943998283481
 30
0.0
  0
VERTEX
  5
538F
  8
0
 10
188.223641335064
 20
77.506615998283507
 30
0.0
  0
VERTEX
  5
5390
  8
0
 10
194.0142293350641
 20
77.435425998283506
 30
0.0
  0
VERTEX
  5
5391
  8
0
 10
199.831215335064
 20
77.328072998283503
 30
0.0
  0
VERTEX
  5
5392
  8
0
 10
205.64762233506411
 20
77.193024998283477
 30
0.0
  0
VERTEX
  5
5393
  8
0
 10
211.0054713350641
 20
77.050126998283545
 30
0.0
  0
VERTEX
  5
5394
  8
0
 10
217.6044093350641
 20
76.8449879982835
 30
0.0
  0
SEQEND
  5
5395
  8
0
  0
LINE
  5
2993
  8
0
 10
154.530694335064
 20
80.515214998283525
 30
0.0
 11
146.530694335064
 21
80.515214998283525
 31
0.0
  0
LINE
  5
2994
  8
0
 10
146.530694335064
 20
80.515214998283525
 30
0.0
 11
146.530694335064
 21
78.515214998283497
 31
0.0
  0
LINE
  5
2995
  8
0
 10
146.530694335064
 20
78.515214998283497
 30
0.0
 11
154.530694335064
 21
78.515214998283497
 31
0.0
  0
LINE
  5
2996
  8
0
 10
154.530694335064
 20
78.515214998283497
 30
0.0
 11
154.530694335064
 21
80.515214998283525
 31
0.0
  0
ARC
  5
2997
  8
0
 10
283.89901684778329
 20
58.03694793051698
 30
0.0
 40
2.049999999999998
 50
180.0
 51
0.0000050000005032
  0
ARC
  5
2998
  8
0
 10
283.89901684778329
 20
58.03694793051698
 30
0.0
 40
2.049999999999998
 50
0.0000050000005032
 51
180.0
  0
ARC
  5
2999
  8
0
 10
241.8990168477832
 20
56.149488930517009
 30
0.0
 40
2.049999999999998
 50
180.0
 51
0.0000050000005032
  0
ARC
  5
299A
  8
0
 10
241.8990168477832
 20
56.149488930517009
 30
0.0
 40
2.049999999999998
 50
0.0000050000005032
 51
180.0
  0
ARC
  5
299B
  8
0
 10
235.7880098477832
 20
56.468427930517009
 30
0.0
 40
0.75
 50
0.0000050000005032
 51
180.0
  0
ARC
  5
299C
  8
0
 10
235.7880098477832
 20
56.468427930517009
 30
0.0
 40
0.75
 50
180.0
 51
0.0000050000005032
  0
ARC
  5
299D
  8
0
 10
232.7881778477832
 20
56.500333930517002
 30
0.0
 40
0.75
 50
359.9999949999995
 51
180.0
  0
ARC
  5
299E
  8
0
 10
232.7881778477832
 20
56.500333930517002
 30
0.0
 40
0.75
 50
180.0
 51
359.9999949999995
  0
ARC
  5
299F
  8
0
 10
229.80482484778329
 20
56.81582493051696
 30
0.0
 40
0.75
 50
180.0
 51
0.0000050000005032
  0
ARC
  5
29A0
  8
0
 10
229.80482484778329
 20
56.81582493051696
 30
0.0
 40
0.75
 50
0.0000050000005032
 51
180.0
  0
LINE
  5
29A1
  8
0
 10
197.82530184778321
 20
60.654950930516982
 30
0.0
 11
197.82530184778321
 21
62.951658930516999
 31
0.0
  0
LINE
  5
29A2
  8
0
 10
197.82530184778321
 20
62.951658930516999
 30
0.0
 11
180.85401884778321
 21
62.951658930516999
 31
0.0
  0
LINE
  5
29A3
  8
0
 10
180.85401884778321
 20
62.951658930516999
 30
0.0
 11
180.85401884778321
 21
61.64081393051697
 31
0.0
  0
LINE
  5
29A4
  8
0
 10
180.85401884778321
 20
61.64081393051697
 30
0.0
 11
192.82530184778321
 21
60.811132930516962
 31
0.0
  0
LINE
  5
29A5
  8
0
 10
192.82530184778321
 20
60.811132930516962
 30
0.0
 11
192.7561648477832
 21
59.813520930516972
 31
0.0
  0
LINE
  5
29A6
  8
0
 10
192.7561648477832
 20
59.813520930516972
 30
0.0
 11
190.76095584778321
 21
59.951802930516969
 31
0.0
  0
LINE
  5
29A7
  8
0
 10
190.76095584778321
 20
59.951802930516969
 30
0.0
 11
190.7563778477832
 21
59.88590793051695
 31
0.0
  0
POLYLINE
  5
29A8
  8
0
 66
     1
 10
0.0
 20
0.0
 30
0.0
  0
VERTEX
  5
5396
  8
0
 10
190.7563778477832
 20
59.88590793051695
 30
0.0
  0
VERTEX
  5
5397
  8
0
 10
195.0850218477832
 20
59.084806930516947
 30
0.0
  0
VERTEX
  5
5398
  8
0
 10
199.78948984778319
 20
58.25761193051698
 30
0.0
  0
VERTEX
  5
5399
  8
0
 10
209.21424884778321
 20
56.62519693051695
 30
0.0
  0
VERTEX
  5
539A
  8
0
 10
213.9073638477833
 20
55.829679930516967
 30
0.0
  0
VERTEX
  5
539B
  8
0
 10
219.00698884778319
 20
55.001920930516981
 30
0.0
  0
VERTEX
  5
539C
  8
0
 10
221.5516208477832
 20
54.615384930516981
 30
0.0
  0
VERTEX
  5
539D
  8
0
 10
225.08134484778321
 20
54.12042093051695
 30
0.0
  0
VERTEX
  5
539E
  8
0
 10
228.61022984778319
 20
53.681218930516927
 30
0.0
  0
VERTEX
  5
539F
  8
0
 10
232.29641684778321
 20
53.283277930516981
 30
0.0
  0
VERTEX
  5
53A0
  8
0
 10
235.99041784778319
 20
52.936582930516977
 30
0.0
  0
VERTEX
  5
53A1
  8
0
 10
240.66607684778319
 20
52.554227930516959
 30
0.0
  0
VERTEX
  5
53A2
  8
0
 10
245.33326684778319
 20
52.237706930517
 30
0.0
  0
VERTEX
  5
53A3
  8
0
 10
247.67182884778319
 20
52.106443930516939
 30
0.0
  0
VERTEX
  5
53A4
  8
0
 10
250.01637284778329
 20
51.995008930516967
 30
0.0
  0
VERTEX
  5
53A5
  8
0
 10
253.48892184778319
 20
51.871366930516942
 30
0.0
  0
VERTEX
  5
53A6
  8
0
 10
256.9508358477832
 20
51.800748930516967
 30
0.0
  0
VERTEX
  5
53A7
  8
0
 10
260.89901684778317
 20
51.784200930516967
 30
0.0
  0
SEQEND
  5
53A8
  8
0
  0
LINE
  5
29A9
  8
0
 10
260.89901684778317
 20
51.784200930516967
 30
0.0
 11
260.89901684778317
 21
53.89318693051699
 31
0.0
  0
LINE
  5
29AA
  8
0
 10
260.89901684778317
 20
53.89318693051699
 30
0.0
 11
268.89901684778329
 21
53.89318693051699
 31
0.0
  0
LINE
  5
29AB
  8
0
 10
268.89901684778329
 20
53.89318693051699
 30
0.0
 11
268.89901684778329
 21
51.993184930516982
 31
0.0
  0
POLYLINE
  5
29AC
  8
0
 66
     1
 10
0.0
 20
0.0
 30
0.0
  0
VERTEX
  5
53A9
  8
0
 10
268.89901684778329
 20
51.993184930516982
 30
0.0
  0
VERTEX
  5
53AA
  8
0
 10
271.10569784778318
 20
52.143613930516992
 30
0.0
  0
VERTEX
  5
53AB
  8
0
 10
272.20751984778332
 20
52.238294930516993
 30
0.0
  0
VERTEX
  5
53AC
  8
0
 10
273.9645078477833
 20
52.423818930516958
 30
0.0
  0
VERTEX
  5
53AD
  8
0
 10
275.71644584778318
 20
52.652616930516942
 30
0.0
  0
VERTEX
  5
53AE
  8
0
 10
277.1914218477832
 20
52.881955930517002
 30
0.0
  0
VERTEX
  5
53AF
  8
0
 10
278.66093484778321
 20
53.144025930516968
 30
0.0
  0
VERTEX
  5
53B0
  8
0
 10
280.2769168477833
 20
53.464879930516993
 30
0.0
  0
VERTEX
  5
53B1
  8
0
 10
281.8877718477832
 20
53.810415930516967
 30
0.0
  0
SEQEND
  5
53B2
  8
0
  0
POLYLINE
  5
29AD
  8
0
 66
     1
 10
0.0
 20
0.0
 30
0.0
  0
VERTEX
  5
53B3
  8
0
 10
281.8877718477832
 20
53.810415930516967
 30
0.0
  0
VERTEX
  5
53B4
  8
0
 10
283.95617684778318
 20
54.28967893051697
 30
0.0
  0
VERTEX
  5
53B5
  8
0
 10
284.98558084778318
 20
54.549527930516987
 30
0.0
  0
VERTEX
  5
53B6
  8
0
 10
286.00970484778321
 20
54.829175930516953
 30
0.0
  0
VERTEX
  5
53B7
  8
0
 10
287.0270688477832
 20
55.132230930516968
 30
0.0
  0
VERTEX
  5
53B8
  8
0
 10
288.03729284778319
 20
55.458440930516979
 30
0.0
  0
SEQEND
  5
53B9
  8
0
  0
LINE
  5
29AE
  8
0
 10
288.03729284778319
 20
55.458440930516979
 30
0.0
 11
288.47080984778319
 21
55.607908930516999
 31
0.0
  0
POLYLINE
  5
29AF
  8
0
 66
     1
 10
0.0
 20
0.0
 30
0.0
  0
VERTEX
  5
53BA
  8
0
 10
288.47080984778319
 20
55.607908930516999
 30
0.0
  0
VERTEX
  5
53BB
  8
0
 10
289.6594088477832
 20
56.039594930516962
 30
0.0
  0
VERTEX
  5
53BC
  8
0
 10
292.02679484778321
 20
56.929914930517
 30
0.0
  0
SEQEND
  5
53BD
  8
0
  0
LINE
  5
29B0
  8
0
 10
292.02679484778321
 20
56.929914930517
 30
0.0
 11
292.46667484778322
 21
57.098188930516969
 31
0.0
  0
ARC
  5
29B1
  8
0
 10
283.0265048477832
 20
81.57583493051699
 30
0.0
 40
26.234819000000002
 50
291.08987799999852
 51
293.11886800000059
  0
ARC
  5
29B2
  8
0
 10
287.14594984778319
 20
71.941602930516993
 30
0.0
 40
15.756596
 50
293.0976669999983
 51
296.4200960000008
  0
POLYLINE
  5
29B3
  8
0
 66
     1
 10
0.0
 20
0.0
 30
0.0
  0
VERTEX
  5
53BE
  8
0
 10
294.15678384778317
 20
57.830800930516943
 30
0.0
  0
VERTEX
  5
53BF
  8
0
 10
294.90238984778318
 20
58.224584930516983
 30
0.0
  0
VERTEX
  5
53C0
  8
0
 10
295.38859584778322
 20
58.50686493051694
 30
0.0
  0
VERTEX
  5
53C1
  8
0
 10
296.33940084778322
 20
59.107267930516969
 30
0.0
  0
SEQEND
  5
53C2
  8
0
  0
LINE
  5
29B4
  8
0
 10
296.33940084778322
 20
59.107267930516969
 30
0.0
 11
296.75749184778317
 21
59.384099930516967
 31
0.0
  0
LINE
  5
29B5
  8
0
 10
296.75749184778317
 20
59.384099930516967
 30
0.0
 11
297.16685484778321
 21
59.660566930517007
 31
0.0
  0
ARC
  5
29B6
  8
0
 10
278.25146484778321
 20
87.61811693051699
 30
0.0
 40
33.755140000000011
 50
304.08130099999971
 51
305.36578599999939
  0
LINE
  5
29B7
  8
0
 10
297.78869584778317
 20
60.091764930516987
 30
0.0
 11
297.99668884778322
 21
60.241758930516973
 31
0.0
  0
LINE
  5
29B8
  8
0
 10
297.99668884778322
 20
60.241758930516973
 30
0.0
 11
298.21063184778319
 21
60.399831930517003
 31
0.0
  0
LINE
  5
29B9
  8
0
 10
298.21063184778319
 20
60.399831930517003
 30
0.0
 11
298.43347184778321
 21
60.569028930517
 31
0.0
  0
LINE
  5
29BA
  8
0
 10
298.43347184778321
 20
60.569028930517
 30
0.0
 11
298.6652378477832
 21
60.75128793051698
 31
0.0
  0
ARC
  5
29BB
  8
0
 10
287.86843884778318
 20
74.238507930516946
 30
0.0
 40
17.276416000000001
 50
308.67801800000188
 51
310.11571799999888
  0
ARC
  5
29BC
  8
0
 10
291.7474668477833
 20
69.529859930516963
 30
0.0
 40
11.176515999999999
 50
310.46163999999902
 51
314.66294399999663
  0
LINE
  5
29BD
  8
0
 10
299.60401884778321
 20
61.580320930516962
 30
0.0
 11
299.6367798477832
 21
61.618573930516959
 31
0.0
  0
LINE
  5
29BE
  8
0
 10
299.6367798477832
 20
61.618573930516959
 30
0.0
 11
295.97376984778322
 21
60.977956930517003
 31
0.0
  0
LINE
  5
29BF
  8
0
 10
295.97376984778322
 20
60.977956930517003
 30
0.0
 11
295.62860084778322
 21
62.951658930516999
 31
0.0
  0
LINE
  5
29C0
  8
0
 10
295.62860084778322
 20
62.951658930516999
 30
0.0
 11
295.50801084778323
 21
62.950162930516967
 31
0.0
  0
POLYLINE
  5
29C1
  8
0
 66
     1
 10
0.0
 20
0.0
 30
0.0
  0
VERTEX
  5
53C3
  8
0
 10
295.50801084778323
 20
62.950162930516967
 30
0.0
  0
VERTEX
  5
53C4
  8
0
 10
293.40705884778322
 20
62.895925930516967
 30
0.0
  0
VERTEX
  5
53C5
  8
0
 10
292.35757484778321
 20
62.842679930516951
 30
0.0
  0
VERTEX
  5
53C6
  8
0
 10
290.7848358477832
 20
62.731626930516967
 30
0.0
  0
VERTEX
  5
53C7
  8
0
 10
289.56870984778323
 20
62.626699930516949
 30
0.0
  0
VERTEX
  5
53C8
  8
0
 10
288.3540958477833
 20
62.507611930516973
 30
0.0
  0
SEQEND
  5
53C9
  8
0
  0
POLYLINE
  5
29C2
  8
0
 66
     1
 10
0.0
 20
0.0
 30
0.0
  0
VERTEX
  5
53CA
  8
0
 10
288.3540958477833
 20
62.507611930516973
 30
0.0
  0
VERTEX
  5
53CB
  8
0
 10
285.22984284778317
 20
62.16200093051696
 30
0.0
  0
VERTEX
  5
53CC
  8
0
 10
283.1464388477832
 20
61.937673930516951
 30
0.0
  0
VERTEX
  5
53CD
  8
0
 10
280.02256784778319
 20
61.666814930516971
 30
0.0
  0
VERTEX
  5
53CE
  8
0
 10
278.6335598477832
 20
61.573133930516981
 30
0.0
  0
VERTEX
  5
53CF
  8
0
 10
275.85403484778323
 20
61.40718693051695
 30
0.0
  0
SEQEND
  5
53D0
  8
0
  0
POLYLINE
  5
29C3
  8
0
 66
     1
 10
0.0
 20
0.0
 30
0.0
  0
VERTEX
  5
53D1
  8
0
 10
275.85403484778323
 20
61.40718693051695
 30
0.0
  0
VERTEX
  5
53D2
  8
0
 10
269.8380588477832
 20
61.051603930516997
 30
0.0
  0
VERTEX
  5
53D3
  8
0
 10
266.8298188477832
 20
60.87832493051696
 30
0.0
  0
VERTEX
  5
53D4
  8
0
 10
262.31645184778318
 20
60.638913930516999
 30
0.0
  0
VERTEX
  5
53D5
  8
0
 10
258.37248184778321
 20
60.460157930516971
 30
0.0
  0
VERTEX
  5
53D6
  8
0
 10
254.42710884778319
 20
60.313581930516982
 30
0.0
  0
VERTEX
  5
53D7
  8
0
 10
249.6660618477832
 20
60.17304093051699
 30
0.0
  0
VERTEX
  5
53D8
  8
0
 10
244.9040828477832
 20
60.067868930516958
 30
0.0
  0
VERTEX
  5
53D9
  8
0
 10
240.14150984778331
 20
59.998807930516982
 30
0.0
  0
VERTEX
  5
53DA
  8
0
 10
236.56932084778319
 20
59.97160193051694
 30
0.0
  0
VERTEX
  5
53DB
  8
0
 10
232.99702484778319
 20
59.96499493051698
 30
0.0
  0
VERTEX
  5
53DC
  8
0
 10
227.2060698477832
 20
59.993322930516968
 30
0.0
  0
VERTEX
  5
53DD
  8
0
 10
221.41548184778321
 20
60.064512930516962
 30
0.0
  0
VERTEX
  5
53DE
  8
0
 10
215.5984958477832
 20
60.171865930516958
 30
0.0
  0
VERTEX
  5
53DF
  8
0
 10
209.7820888477832
 20
60.306913930516998
 30
0.0
  0
VERTEX
  5
53E0
  8
0
 10
204.42423984778321
 20
60.44981193051693
 30
0.0
  0
VERTEX
  5
53E1
  8
0
 10
197.82530184778321
 20
60.654950930516982
 30
0.0
  0
SEQEND
  5
53E2
  8
0
  0
LINE
  5
29C4
  8
0
 10
260.89901684778317
 20
56.98472393051695
 30
0.0
 11
268.89901684778329
 21
56.98472393051695
 31
0.0
  0
LINE
  5
29C5
  8
0
 10
268.89901684778329
 20
56.98472393051695
 30
0.0
 11
268.89901684778329
 21
58.984723930516957
 31
0.0
  0
LINE
  5
29C6
  8
0
 10
268.89901684778329
 20
58.984723930516957
 30
0.0
 11
260.89901684778317
 21
58.984723930516957
 31
0.0
  0
LINE
  5
29C7
  8
0
 10
260.89901684778317
 20
58.984723930516957
 30
0.0
 11
260.89901684778317
 21
56.98472393051695
 31
0.0
  0
ARC
  5
2A39
  8
0
 10
241.1837293085498
 20
70.156986683374384
 30
0.0
 40
2.049999999999998
 50
0.0
 51
180.0000050000005
  0
ARC
  5
2A3A
  8
0
 10
241.1837293085498
 20
70.156986683374384
 30
0.0
 40
2.049999999999998
 50
180.0000050000005
 51
0.0
  0
ARC
  5
2A3B
  8
0
 10
283.1837293085498
 20
72.044452683374345
 30
0.0
 40
2.049999999999998
 50
0.0
 51
180.0000050000005
  0
ARC
  5
2A3C
  8
0
 10
283.1837293085498
 20
72.044452683374345
 30
0.0
 40
2.049999999999998
 50
180.0000050000005
 51
0.0
  0
ARC
  5
2A3D
  8
0
 10
289.29473630854977
 20
72.248508683374311
 30
0.0
 40
0.75
 50
180.0000050000005
 51
0.0
  0
ARC
  5
2A3E
  8
0
 10
289.29473630854977
 20
72.248508683374311
 30
0.0
 40
0.75
 50
0.0
 51
180.0000050000005
  0
ARC
  5
2A3F
  8
0
 10
292.29456830854991
 20
72.216602683374333
 30
0.0
 40
0.75
 50
179.9999949999995
 51
0.0
  0
ARC
  5
2A40
  8
0
 10
292.29456830854991
 20
72.216602683374333
 30
0.0
 40
0.75
 50
0.0
 51
179.9999949999995
  0
ARC
  5
2A41
  8
0
 10
295.27792130854982
 20
71.901111683374381
 30
0.0
 40
0.75
 50
179.9999949999995
 51
0.0
  0
ARC
  5
2A42
  8
0
 10
295.27792130854982
 20
71.901111683374381
 30
0.0
 40
0.75
 50
0.0
 51
179.9999949999995
  0
ARC
  5
2A43
  8
0
 10
298.25677230854978
 20
71.545406683374381
 30
0.0
 40
0.75
 50
0.0
 51
180.0000050000005
  0
ARC
  5
2A44
  8
0
 10
298.25677230854978
 20
71.545406683374381
 30
0.0
 40
0.75
 50
180.0000050000005
 51
0.0
  0
LINE
  5
2A45
  8
0
 10
327.25744430854979
 20
68.061985683374346
 30
0.0
 11
327.25744430854979
 21
65.76527768337435
 31
0.0
  0
LINE
  5
2A46
  8
0
 10
327.25744430854979
 20
65.76527768337435
 30
0.0
 11
344.22872730854982
 21
65.76527768337435
 31
0.0
  0
LINE
  5
2A47
  8
0
 10
344.22872730854982
 20
65.76527768337435
 30
0.0
 11
344.22872730854982
 21
67.076122683374365
 31
0.0
  0
LINE
  5
2A48
  8
0
 10
344.22872730854982
 20
67.076122683374365
 30
0.0
 11
332.25744430854979
 21
67.905803683374359
 31
0.0
  0
LINE
  5
2A49
  8
0
 10
332.25744430854979
 20
67.905803683374359
 30
0.0
 11
332.32658130854992
 21
68.903415683374362
 31
0.0
  0
LINE
  5
2A4A
  8
0
 10
332.32658130854992
 20
68.903415683374362
 30
0.0
 11
334.32179030854979
 21
68.765133683374358
 31
0.0
  0
LINE
  5
2A4B
  8
0
 10
334.32179030854979
 20
68.765133683374358
 30
0.0
 11
334.32636830854977
 21
68.83102868337437
 31
0.0
  0
POLYLINE
  5
2A4C
  8
0
 66
     1
 10
0.0
 20
0.0
 30
0.0
  0
VERTEX
  5
53E3
  8
0
 10
334.32636830854977
 20
68.83102868337437
 30
0.0
  0
VERTEX
  5
53E4
  8
0
 10
329.99772430854989
 20
69.632129683374401
 30
0.0
  0
VERTEX
  5
53E5
  8
0
 10
325.29325630854993
 20
70.459324683374348
 30
0.0
  0
VERTEX
  5
53E6
  8
0
 10
315.86849730854982
 20
72.091739683374371
 30
0.0
  0
VERTEX
  5
53E7
  8
0
 10
311.1753823085499
 20
72.887256683374346
 30
0.0
  0
VERTEX
  5
53E8
  8
0
 10
306.07575730854978
 20
73.715015683374375
 30
0.0
  0
VERTEX
  5
53E9
  8
0
 10
303.5311253085498
 20
74.101551683374353
 30
0.0
  0
VERTEX
  5
53EA
  8
0
 10
300.00140130854982
 20
74.596515683374378
 30
0.0
  0
VERTEX
  5
53EB
  8
0
 10
296.47251630854993
 20
75.035717683374401
 30
0.0
  0
VERTEX
  5
53EC
  8
0
 10
292.7863293085498
 20
75.433658683374347
 30
0.0
  0
VERTEX
  5
53ED
  8
0
 10
289.09232830854978
 20
75.780353683374344
 30
0.0
  0
VERTEX
  5
53EE
  8
0
 10
284.41666930854979
 20
76.162708683374376
 30
0.0
  0
VERTEX
  5
53EF
  8
0
 10
279.74947930854978
 20
76.479229683374342
 30
0.0
  0
VERTEX
  5
53F0
  8
0
 10
277.41091730854981
 20
76.610492683374403
 30
0.0
  0
VERTEX
  5
53F1
  8
0
 10
275.06637330854983
 20
76.721927683374375
 30
0.0
  0
VERTEX
  5
53F2
  8
0
 10
271.59382430854998
 20
76.845569683374379
 30
0.0
  0
VERTEX
  5
53F3
  8
0
 10
268.13191030854989
 20
76.916187683374346
 30
0.0
  0
VERTEX
  5
53F4
  8
0
 10
264.1837293085498
 20
76.932735683374347
 30
0.0
  0
SEQEND
  5
53F5
  8
0
  0
LINE
  5
2A4D
  8
0
 10
264.1837293085498
 20
76.932735683374347
 30
0.0
 11
264.1837293085498
 21
74.823749683374345
 31
0.0
  0
LINE
  5
2A4E
  8
0
 10
264.1837293085498
 20
74.823749683374345
 30
0.0
 11
256.1837293085498
 21
74.823749683374345
 31
0.0
  0
LINE
  5
2A4F
  8
0
 10
256.1837293085498
 20
74.823749683374345
 30
0.0
 11
256.1837293085498
 21
76.72375168337436
 31
0.0
  0
POLYLINE
  5
2A50
  8
0
 66
     1
 10
0.0
 20
0.0
 30
0.0
  0
VERTEX
  5
53F6
  8
0
 10
256.1837293085498
 20
76.72375168337436
 30
0.0
  0
VERTEX
  5
53F7
  8
0
 10
253.9770483085498
 20
76.573322683374343
 30
0.0
  0
VERTEX
  5
53F8
  8
0
 10
252.8752263085498
 20
76.478641683374335
 30
0.0
  0
VERTEX
  5
53F9
  8
0
 10
251.11823830854991
 20
76.293117683374376
 30
0.0
  0
VERTEX
  5
53FA
  8
0
 10
249.3663003085498
 20
76.064319683374379
 30
0.0
  0
VERTEX
  5
53FB
  8
0
 10
247.8913243085498
 20
75.834980683374354
 30
0.0
  0
VERTEX
  5
53FC
  8
0
 10
246.42181130854979
 20
75.572910683374346
 30
0.0
  0
VERTEX
  5
53FD
  8
0
 10
244.8058293085499
 20
75.252056683374335
 30
0.0
  0
VERTEX
  5
53FE
  8
0
 10
243.1949743085498
 20
74.906520683374353
 30
0.0
  0
SEQEND
  5
53FF
  8
0
  0
POLYLINE
  5
2A51
  8
0
 66
     1
 10
0.0
 20
0.0
 30
0.0
  0
VERTEX
  5
5400
  8
0
 10
243.1949743085498
 20
74.906520683374353
 30
0.0
  0
VERTEX
  5
5401
  8
0
 10
241.12656930854979
 20
74.427257683374378
 30
0.0
  0
VERTEX
  5
5402
  8
0
 10
240.09716530854979
 20
74.167408683374333
 30
0.0
  0
VERTEX
  5
5403
  8
0
 10
239.07304130854979
 20
73.887760683374381
 30
0.0
  0
VERTEX
  5
5404
  8
0
 10
238.0556773085498
 20
73.584705683374352
 30
0.0
  0
VERTEX
  5
5405
  8
0
 10
237.04545330854981
 20
73.258495683374349
 30
0.0
  0
SEQEND
  5
5406
  8
0
  0
LINE
  5
2A52
  8
0
 10
237.04545330854981
 20
73.258495683374349
 30
0.0
 11
236.6119363085497
 21
73.10902768337435
 31
0.0
  0
POLYLINE
  5
2A53
  8
0
 66
     1
 10
0.0
 20
0.0
 30
0.0
  0
VERTEX
  5
5407
  8
0
 10
236.6119363085497
 20
73.10902768337435
 30
0.0
  0
VERTEX
  5
5408
  8
0
 10
235.4233373085498
 20
72.677341683374379
 30
0.0
  0
VERTEX
  5
5409
  8
0
 10
233.05595130854979
 20
71.787021683374348
 30
0.0
  0
SEQEND
  5
540A
  8
0
  0
LINE
  5
2A54
  8
0
 10
233.05595130854979
 20
71.787021683374348
 30
0.0
 11
232.61607130854981
 21
71.618747683374352
 31
0.0
  0
ARC
  5
2A55
  8
0
 10
242.0562413085498
 20
47.141101683374359
 30
0.0
 40
26.234819000000002
 50
111.0898779999997
 51
113.1188680000004
  0
ARC
  5
2A56
  8
0
 10
237.9367963085499
 20
56.775333683374349
 30
0.0
 40
15.756596
 50
113.0976670000011
 51
116.4200960000008
  0
POLYLINE
  5
2A57
  8
0
 66
     1
 10
0.0
 20
0.0
 30
0.0
  0
VERTEX
  5
540B
  8
0
 10
230.9259623085498
 20
70.886135683374391
 30
0.0
  0
VERTEX
  5
540C
  8
0
 10
230.1803563085499
 20
70.492351683374352
 30
0.0
  0
VERTEX
  5
540D
  8
0
 10
229.69415030854981
 20
70.210071683374395
 30
0.0
  0
VERTEX
  5
540E
  8
0
 10
228.74334530854981
 20
69.609668683374366
 30
0.0
  0
SEQEND
  5
540F
  8
0
  0
LINE
  5
2A58
  8
0
 10
228.74334530854981
 20
69.609668683374366
 30
0.0
 11
228.3252543085498
 21
69.332836683374353
 31
0.0
  0
LINE
  5
2A59
  8
0
 10
228.3252543085498
 20
69.332836683374353
 30
0.0
 11
227.91589130854979
 21
69.056369683374314
 31
0.0
  0
ARC
  5
2A5A
  8
0
 10
246.83128130854979
 20
41.098819683374352
 30
0.0
 40
33.755140000000011
 50
124.0813009999999
 51
125.3657859999994
  0
LINE
  5
2A5B
  8
0
 10
227.2940503085498
 20
68.625171683374333
 30
0.0
 11
227.08605730854981
 21
68.475177683374341
 31
0.0
  0
LINE
  5
2A5C
  8
0
 10
227.08605730854981
 20
68.475177683374341
 30
0.0
 11
226.87211430854981
 21
68.317104683374325
 31
0.0
  0
LINE
  5
2A5D
  8
0
 10
226.87211430854981
 20
68.317104683374325
 30
0.0
 11
226.64927430854971
 21
68.147907683374342
 31
0.0
  0
LINE
  5
2A5E
  8
0
 10
226.64927430854971
 20
68.147907683374342
 30
0.0
 11
226.4175083085498
 21
67.965648683374354
 31
0.0
  0
ARC
  5
2A5F
  8
0
 10
237.21430730854971
 20
54.478428683374382
 30
0.0
 40
17.276416000000001
 50
128.67801799999981
 51
130.11571799999999
  0
ARC
  5
2A60
  8
0
 10
233.3352793085499
 20
59.187076683374357
 30
0.0
 40
11.176515999999999
 50
130.46163999999899
 51
134.66294400000069
  0
LINE
  5
2A61
  8
0
 10
225.47872730854979
 20
67.136615683374373
 30
0.0
 11
225.4459663085498
 21
67.09836268337439
 31
0.0
  0
LINE
  5
2A62
  8
0
 10
225.4459663085498
 20
67.09836268337439
 30
0.0
 11
229.10897630854981
 21
67.738979683374353
 31
0.0
  0
LINE
  5
2A63
  8
0
 10
229.10897630854981
 20
67.738979683374353
 30
0.0
 11
229.4541453085499
 21
65.76527768337435
 31
0.0
  0
LINE
  5
2A64
  8
0
 10
229.4541453085499
 20
65.76527768337435
 30
0.0
 11
229.57473530854989
 21
65.766773683374367
 31
0.0
  0
POLYLINE
  5
2A65
  8
0
 66
     1
 10
0.0
 20
0.0
 30
0.0
  0
VERTEX
  5
5410
  8
0
 10
229.57473530854989
 20
65.766773683374367
 30
0.0
  0
VERTEX
  5
5411
  8
0
 10
231.67568730854981
 20
65.821010683374354
 30
0.0
  0
VERTEX
  5
5412
  8
0
 10
232.72517130854979
 20
65.874256683374369
 30
0.0
  0
VERTEX
  5
5413
  8
0
 10
234.2979103085498
 20
65.985309683374354
 30
0.0
  0
VERTEX
  5
5414
  8
0
 10
235.51403630854989
 20
66.090236683374371
 30
0.0
  0
VERTEX
  5
5415
  8
0
 10
236.7286503085499
 20
66.209324683374348
 30
0.0
  0
SEQEND
  5
5416
  8
0
  0
POLYLINE
  5
2A66
  8
0
 66
     1
 10
0.0
 20
0.0
 30
0.0
  0
VERTEX
  5
5417
  8
0
 10
236.7286503085499
 20
66.209324683374348
 30
0.0
  0
VERTEX
  5
5418
  8
0
 10
239.8529033085498
 20
66.554935683374367
 30
0.0
  0
VERTEX
  5
5419
  8
0
 10
241.9363073085498
 20
66.779262683374384
 30
0.0
  0
VERTEX
  5
541A
  8
0
 10
245.06017830854981
 20
67.050121683374357
 30
0.0
  0
VERTEX
  5
541B
  8
0
 10
246.4491863085498
 20
67.143802683374361
 30
0.0
  0
VERTEX
  5
541C
  8
0
 10
249.22871130854989
 20
67.309749683374392
 30
0.0
  0
SEQEND
  5
541D
  8
0
  0
POLYLINE
  5
2A67
  8
0
 66
     1
 10
0.0
 20
0.0
 30
0.0
  0
VERTEX
  5
541E
  8
0
 10
249.22871130854989
 20
67.309749683374392
 30
0.0
  0
VERTEX
  5
541F
  8
0
 10
255.2446873085498
 20
67.665332683374345
 30
0.0
  0
VERTEX
  5
5420
  8
0
 10
258.25292730854977
 20
67.838611683374381
 30
0.0
  0
VERTEX
  5
5421
  8
0
 10
262.76629430854979
 20
68.078022683374343
 30
0.0
  0
VERTEX
  5
5422
  8
0
 10
266.71026430854988
 20
68.256778683374364
 30
0.0
  0
VERTEX
  5
5423
  8
0
 10
270.65563730854979
 20
68.403354683374346
 30
0.0
  0
VERTEX
  5
5424
  8
0
 10
275.41668430854992
 20
68.54389568337433
 30
0.0
  0
VERTEX
  5
5425
  8
0
 10
280.1786633085498
 20
68.649067683374369
 30
0.0
  0
VERTEX
  5
5426
  8
0
 10
284.94123630854978
 20
68.718128683374346
 30
0.0
  0
VERTEX
  5
5427
  8
0
 10
288.51342530854981
 20
68.745334683374381
 30
0.0
  0
VERTEX
  5
5428
  8
0
 10
292.08572130854992
 20
68.751941683374355
 30
0.0
  0
VERTEX
  5
5429
  8
0
 10
297.8766763085498
 20
68.723613683374353
 30
0.0
  0
VERTEX
  5
542A
  8
0
 10
303.66726430854987
 20
68.652423683374366
 30
0.0
  0
VERTEX
  5
542B
  8
0
 10
309.4842503085498
 20
68.545070683374391
 30
0.0
  0
VERTEX
  5
542C
  8
0
 10
315.30065730854989
 20
68.410022683374351
 30
0.0
  0
VERTEX
  5
542D
  8
0
 10
320.65850630854982
 20
68.267124683374391
 30
0.0
  0
VERTEX
  5
542E
  8
0
 10
327.25744430854979
 20
68.061985683374346
 30
0.0
  0
SEQEND
  5
542F
  8
0
  0
LINE
  5
2A68
  8
0
 10
264.1837293085498
 20
71.732212683374371
 30
0.0
 11
256.1837293085498
 21
71.732212683374371
 31
0.0
  0
LINE
  5
2A69
  8
0
 10
256.1837293085498
 20
71.732212683374371
 30
0.0
 11
256.1837293085498
 21
69.732212683374371
 31
0.0
  0
LINE
  5
2A6A
  8
0
 10
256.1837293085498
 20
69.732212683374371
 30
0.0
 11
264.1837293085498
 21
69.732212683374371
 31
0.0
  0
LINE
  5
2A6B
  8
0
 10
264.1837293085498
 20
69.732212683374371
 30
0.0
 11
264.1837293085498
 21
71.732212683374371
 31
0.0
  0
ARC
  5
2A6C
  8
0
 10
219.53681383090731
 20
87.837929488966296
 30
0.0
 40
2.049999999999998
 50
0.0
 51
180.0000050000005
  0
ARC
  5
2A6D
  8
0
 10
219.53681383090731
 20
87.837929488966296
 30
0.0
 40
2.049999999999998
 50
180.0000050000005
 51
0.0
  0
ARC
  5
2A6E
  8
0
 10
261.53681383090719
 20
89.725395488966271
 30
0.0
 40
2.049999999999998
 50
0.0
 51
180.0000050000005
  0
ARC
  5
2A6F
  8
0
 10
261.53681383090719
 20
89.725395488966271
 30
0.0
 40
2.049999999999998
 50
180.0000050000005
 51
0.0
  0
ARC
  5
2A70
  8
0
 10
267.64782083090728
 20
89.929451488966279
 30
0.0
 40
0.75
 50
180.0000050000005
 51
0.0
  0
ARC
  5
2A71
  8
0
 10
267.64782083090728
 20
89.929451488966279
 30
0.0
 40
0.75
 50
0.0
 51
180.0000050000005
  0
ARC
  5
2A72
  8
0
 10
270.6476528309073
 20
89.897545488966273
 30
0.0
 40
0.75
 50
179.9999949999995
 51
0.0
  0
ARC
  5
2A73
  8
0
 10
270.6476528309073
 20
89.897545488966273
 30
0.0
 40
0.75
 50
0.0
 51
179.9999949999995
  0
ARC
  5
2A74
  8
0
 10
273.63100583090733
 20
89.582054488966335
 30
0.0
 40
0.75
 50
179.9999949999995
 51
0.0
  0
ARC
  5
2A75
  8
0
 10
273.63100583090733
 20
89.582054488966335
 30
0.0
 40
0.75
 50
0.0
 51
179.9999949999995
  0
ARC
  5
2A76
  8
0
 10
276.60985683090729
 20
89.226349488966306
 30
0.0
 40
0.75
 50
0.0
 51
180.0000050000005
  0
ARC
  5
2A77
  8
0
 10
276.60985683090729
 20
89.226349488966306
 30
0.0
 40
0.75
 50
180.0000050000005
 51
0.0
  0
LINE
  5
2A78
  8
0
 10
305.6105288309073
 20
85.742928488966314
 30
0.0
 11
305.6105288309073
 21
83.446220488966262
 31
0.0
  0
LINE
  5
2A79
  8
0
 10
305.6105288309073
 20
83.446220488966262
 30
0.0
 11
322.58181183090733
 21
83.446220488966262
 31
0.0
  0
LINE
  5
2A7A
  8
0
 10
322.58181183090733
 20
83.446220488966262
 30
0.0
 11
322.58181183090733
 21
84.757065488966305
 31
0.0
  0
LINE
  5
2A7B
  8
0
 10
322.58181183090733
 20
84.757065488966305
 30
0.0
 11
310.61052883090719
 21
85.586746488966298
 31
0.0
  0
LINE
  5
2A7C
  8
0
 10
310.61052883090719
 20
85.586746488966298
 30
0.0
 11
310.67966583090731
 21
86.584358488966274
 31
0.0
  0
LINE
  5
2A7D
  8
0
 10
310.67966583090731
 20
86.584358488966274
 30
0.0
 11
312.6748748309073
 21
86.44607648896627
 31
0.0
  0
LINE
  5
2A7E
  8
0
 10
312.6748748309073
 20
86.44607648896627
 30
0.0
 11
312.67945283090722
 21
86.51197148896631
 31
0.0
  0
POLYLINE
  5
2A7F
  8
0
 66
     1
 10
0.0
 20
0.0
 30
0.0
  0
VERTEX
  5
5430
  8
0
 10
312.67945283090722
 20
86.51197148896631
 30
0.0
  0
VERTEX
  5
5431
  8
0
 10
308.35080883090723
 20
87.313072488966327
 30
0.0
  0
VERTEX
  5
5432
  8
0
 10
303.64634083090732
 20
88.140267488966273
 30
0.0
  0
VERTEX
  5
5433
  8
0
 10
294.22158183090721
 20
89.772682488966311
 30
0.0
  0
VERTEX
  5
5434
  8
0
 10
289.52846683090718
 20
90.568199488966272
 30
0.0
  0
VERTEX
  5
5435
  8
0
 10
284.42884183090717
 20
91.395958488966315
 30
0.0
  0
VERTEX
  5
5436
  8
0
 10
281.8842098309072
 20
91.782494488966265
 30
0.0
  0
VERTEX
  5
5437
  8
0
 10
278.35448583090732
 20
92.277458488966289
 30
0.0
  0
VERTEX
  5
5438
  8
0
 10
274.82560083090732
 20
92.716660488966355
 30
0.0
  0
VERTEX
  5
5439
  8
0
 10
271.1394138309073
 20
93.114601488966258
 30
0.0
  0
VERTEX
  5
543A
  8
0
 10
267.44541283090729
 20
93.461296488966255
 30
0.0
  0
VERTEX
  5
543B
  8
0
 10
262.76975383090718
 20
93.843651488966316
 30
0.0
  0
VERTEX
  5
543C
  8
0
 10
258.10256383090729
 20
94.160172488966268
 30
0.0
  0
VERTEX
  5
543D
  8
0
 10
255.76400183090729
 20
94.291435488966314
 30
0.0
  0
VERTEX
  5
543E
  8
0
 10
253.41945783090731
 20
94.4028704889663
 30
0.0
  0
VERTEX
  5
543F
  8
0
 10
249.94690883090729
 20
94.526512488966347
 30
0.0
  0
VERTEX
  5
5440
  8
0
 10
246.48499483090731
 20
94.597130488966272
 30
0.0
  0
VERTEX
  5
5441
  8
0
 10
242.53681383090711
 20
94.613678488966258
 30
0.0
  0
SEQEND
  5
5442
  8
0
  0
LINE
  5
2A80
  8
0
 10
242.53681383090711
 20
94.613678488966258
 30
0.0
 11
242.53681383090711
 21
92.504692488966242
 31
0.0
  0
LINE
  5
2A81
  8
0
 10
242.53681383090711
 20
92.504692488966242
 30
0.0
 11
234.53681383090731
 21
92.504692488966242
 31
0.0
  0
LINE
  5
2A82
  8
0
 10
234.53681383090731
 20
92.504692488966242
 30
0.0
 11
234.53681383090731
 21
94.4046944889663
 31
0.0
  0
POLYLINE
  5
2A83
  8
0
 66
     1
 10
0.0
 20
0.0
 30
0.0
  0
VERTEX
  5
5443
  8
0
 10
234.53681383090731
 20
94.4046944889663
 30
0.0
  0
VERTEX
  5
5444
  8
0
 10
232.3301328309073
 20
94.254265488966269
 30
0.0
  0
VERTEX
  5
5445
  8
0
 10
231.22831083090739
 20
94.159584488966274
 30
0.0
  0
VERTEX
  5
5446
  8
0
 10
229.4713228309073
 20
93.974060488966288
 30
0.0
  0
VERTEX
  5
5447
  8
0
 10
227.7193848309073
 20
93.745262488966347
 30
0.0
  0
VERTEX
  5
5448
  8
0
 10
226.2444088309073
 20
93.515923488966294
 30
0.0
  0
VERTEX
  5
5449
  8
0
 10
224.7748958309073
 20
93.253853488966271
 30
0.0
  0
VERTEX
  5
544A
  8
0
 10
223.1589138309073
 20
92.932999488966274
 30
0.0
  0
VERTEX
  5
544B
  8
0
 10
221.54805883090731
 20
92.587463488966293
 30
0.0
  0
SEQEND
  5
544C
  8
0
  0
POLYLINE
  5
2A84
  8
0
 66
     1
 10
0.0
 20
0.0
 30
0.0
  0
VERTEX
  5
544D
  8
0
 10
221.54805883090731
 20
92.587463488966293
 30
0.0
  0
VERTEX
  5
544E
  8
0
 10
219.4796538309073
 20
92.108200488966276
 30
0.0
  0
VERTEX
  5
544F
  8
0
 10
218.4502498309073
 20
91.848351488966273
 30
0.0
  0
VERTEX
  5
5450
  8
0
 10
217.4261258309073
 20
91.568703488966307
 30
0.0
  0
VERTEX
  5
5451
  8
0
 10
216.40876183090731
 20
91.265648488966264
 30
0.0
  0
VERTEX
  5
5452
  8
0
 10
215.39853783090729
 20
90.939438488966275
 30
0.0
  0
SEQEND
  5
5453
  8
0
  0
LINE
  5
2A85
  8
0
 10
215.39853783090729
 20
90.939438488966275
 30
0.0
 11
214.96502083090729
 21
90.789970488966276
 31
0.0
  0
POLYLINE
  5
2A86
  8
0
 66
     1
 10
0.0
 20
0.0
 30
0.0
  0
VERTEX
  5
5454
  8
0
 10
214.96502083090729
 20
90.789970488966276
 30
0.0
  0
VERTEX
  5
5455
  8
0
 10
213.77642183090731
 20
90.358284488966348
 30
0.0
  0
VERTEX
  5
5456
  8
0
 10
211.4090358309073
 20
89.467964488966274
 30
0.0
  0
SEQEND
  5
5457
  8
0
  0
LINE
  5
2A87
  8
0
 10
211.4090358309073
 20
89.467964488966274
 30
0.0
 11
210.96915583090731
 21
89.299690488966277
 31
0.0
  0
ARC
  5
2A88
  8
0
 10
220.40932583090731
 20
64.822044488966299
 30
0.0
 40
26.234819000000002
 50
111.0898779999998
 51
113.1188680000004
  0
ARC
  5
2A89
  8
0
 10
216.28988083090729
 20
74.456276488966296
 30
0.0
 40
15.756596
 50
113.0976670000011
 51
116.4200960000007
  0
POLYLINE
  5
2A8A
  8
0
 66
     1
 10
0.0
 20
0.0
 30
0.0
  0
VERTEX
  5
5458
  8
0
 10
209.2790468309073
 20
88.567078488966345
 30
0.0
  0
VERTEX
  5
5459
  8
0
 10
208.5334408309073
 20
88.173294488966292
 30
0.0
  0
VERTEX
  5
545A
  8
0
 10
208.04723483090731
 20
87.891014488966348
 30
0.0
  0
VERTEX
  5
545B
  8
0
 10
207.09642983090731
 20
87.290611488966292
 30
0.0
  0
SEQEND
  5
545C
  8
0
  0
LINE
  5
2A8B
  8
0
 10
207.09642983090731
 20
87.290611488966292
 30
0.0
 11
206.67833883090731
 21
87.013779488966293
 31
0.0
  0
LINE
  5
2A8C
  8
0
 10
206.67833883090731
 20
87.013779488966293
 30
0.0
 11
206.26897583090729
 21
86.737312488966268
 31
0.0
  0
ARC
  5
2A8D
  8
0
 10
225.1843658309073
 20
58.779762488966291
 30
0.0
 40
33.755140000000011
 50
124.081301
 51
125.3657859999993
  0
LINE
  5
2A8E
  8
0
 10
205.64713483090731
 20
86.306114488966287
 30
0.0
 11
205.43914183090729
 21
86.156120488966266
 31
0.0
  0
LINE
  5
2A8F
  8
0
 10
205.43914183090729
 20
86.156120488966266
 30
0.0
 11
205.22519883090729
 21
85.998047488966279
 31
0.0
  0
LINE
  5
2A90
  8
0
 10
205.22519883090729
 20
85.998047488966279
 30
0.0
 11
205.0023588309073
 21
85.828850488966253
 31
0.0
  0
LINE
  5
2A91
  8
0
 10
205.0023588309073
 20
85.828850488966253
 30
0.0
 11
204.7705928309073
 21
85.646591488966294
 31
0.0
  0
ARC
  5
2A92
  8
0
 10
215.5673918309073
 20
72.159371488966286
 30
0.0
 40
17.276416000000001
 50
128.67801799999981
 51
130.11571799999891
  0
ARC
  5
2A93
  8
0
 10
211.68836383090729
 20
76.868019488966297
 30
0.0
 40
11.176515999999999
 50
130.46163999999899
 51
134.66294400000061
  0
LINE
  5
2A94
  8
0
 10
203.8318118309073
 20
84.817558488966299
 30
0.0
 11
203.7990508309073
 21
84.779305488966287
 31
0.0
  0
LINE
  5
2A95
  8
0
 10
203.7990508309073
 20
84.779305488966287
 30
0.0
 11
207.46206083090729
 21
85.419922488966293
 31
0.0
  0
LINE
  5
2A96
  8
0
 10
207.46206083090729
 20
85.419922488966293
 30
0.0
 11
207.80722983090729
 21
83.446220488966262
 31
0.0
  0
LINE
  5
2A97
  8
0
 10
207.80722983090729
 20
83.446220488966262
 30
0.0
 11
207.92781983090731
 21
83.447716488966293
 31
0.0
  0
POLYLINE
  5
2A98
  8
0
 66
     1
 10
0.0
 20
0.0
 30
0.0
  0
VERTEX
  5
545D
  8
0
 10
207.92781983090731
 20
83.447716488966293
 30
0.0
  0
VERTEX
  5
545E
  8
0
 10
210.0287718309072
 20
83.501953488966294
 30
0.0
  0
VERTEX
  5
545F
  8
0
 10
211.0782558309073
 20
83.555199488966309
 30
0.0
  0
VERTEX
  5
5460
  8
0
 10
212.65099483090731
 20
83.666252488966293
 30
0.0
  0
VERTEX
  5
5461
  8
0
 10
213.86712083090731
 20
83.771179488966297
 30
0.0
  0
VERTEX
  5
5462
  8
0
 10
215.08173483090729
 20
83.890267488966245
 30
0.0
  0
SEQEND
  5
5463
  8
0
  0
POLYLINE
  5
2A99
  8
0
 66
     1
 10
0.0
 20
0.0
 30
0.0
  0
VERTEX
  5
5464
  8
0
 10
215.08173483090729
 20
83.890267488966245
 30
0.0
  0
VERTEX
  5
5465
  8
0
 10
218.2059878309073
 20
84.235878488966279
 30
0.0
  0
VERTEX
  5
5466
  8
0
 10
220.28939183090731
 20
84.460205488966324
 30
0.0
  0
VERTEX
  5
5467
  8
0
 10
223.41326283090731
 20
84.731064488966297
 30
0.0
  0
VERTEX
  5
5468
  8
0
 10
224.8022708309073
 20
84.824745488966315
 30
0.0
  0
VERTEX
  5
5469
  8
0
 10
227.58179583090731
 20
84.990692488966289
 30
0.0
  0
SEQEND
  5
546A
  8
0
  0
POLYLINE
  5
2A9A
  8
0
 66
     1
 10
0.0
 20
0.0
 30
0.0
  0
VERTEX
  5
546B
  8
0
 10
227.58179583090731
 20
84.990692488966289
 30
0.0
  0
VERTEX
  5
546C
  8
0
 10
233.59777183090731
 20
85.346275488966285
 30
0.0
  0
VERTEX
  5
546D
  8
0
 10
236.60601183090731
 20
85.519554488966335
 30
0.0
  0
VERTEX
  5
546E
  8
0
 10
241.11937883090729
 20
85.758965488966268
 30
0.0
  0
VERTEX
  5
546F
  8
0
 10
245.0633488309073
 20
85.937721488966289
 30
0.0
  0
VERTEX
  5
5470
  8
0
 10
249.00872183090729
 20
86.084297488966271
 30
0.0
  0
VERTEX
  5
5471
  8
0
 10
253.76976883090731
 20
86.224838488966256
 30
0.0
  0
VERTEX
  5
5472
  8
0
 10
258.53174783090731
 20
86.330010488966295
 30
0.0
  0
VERTEX
  5
5473
  8
0
 10
263.29432083090728
 20
86.399071488966271
 30
0.0
  0
VERTEX
  5
5474
  8
0
 10
266.86650983090732
 20
86.426277488966306
 30
0.0
  0
VERTEX
  5
5475
  8
0
 10
270.43880583090731
 20
86.432884488966295
 30
0.0
  0
VERTEX
  5
5476
  8
0
 10
276.22976083090731
 20
86.404556488966293
 30
0.0
  0
VERTEX
  5
5477
  8
0
 10
282.02034883090721
 20
86.333366488966277
 30
0.0
  0
VERTEX
  5
5478
  8
0
 10
287.8373348309072
 20
86.226013488966274
 30
0.0
  0
VERTEX
  5
5479
  8
0
 10
293.65374183090722
 20
86.090965488966276
 30
0.0
  0
VERTEX
  5
547A
  8
0
 10
299.01159083090732
 20
85.948067488966345
 30
0.0
  0
VERTEX
  5
547B
  8
0
 10
305.6105288309073
 20
85.742928488966314
 30
0.0
  0
SEQEND
  5
547C
  8
0
  0
LINE
  5
2A9B
  8
0
 10
242.53681383090711
 20
89.413155488966297
 30
0.0
 11
234.53681383090731
 21
89.413155488966297
 31
0.0
  0
LINE
  5
2A9C
  8
0
 10
234.53681383090731
 20
89.413155488966297
 30
0.0
 11
234.53681383090731
 21
87.413155488966297
 31
0.0
  0
LINE
  5
2A9D
  8
0
 10
234.53681383090731
 20
87.413155488966297
 30
0.0
 11
242.53681383090711
 21
87.413155488966297
 31
0.0
  0
LINE
  5
2A9E
  8
0
 10
242.53681383090711
 20
87.413155488966297
 30
0.0
 11
242.53681383090711
 21
89.413155488966297
 31
0.0
  0
ARC
  5
2B0D
  8
0
 10
327.64345020949082
 20
77.999009019532863
 30
0.0
 40
2.049999999999998
 50
0.0
 51
180.0000050000005
  0
ARC
  5
2B0E
  8
0
 10
327.64345020949082
 20
77.999009019532863
 30
0.0
 40
2.049999999999998
 50
180.0000050000005
 51
0.0
  0
ARC
  5
2B0F
  8
0
 10
369.64345020949082
 20
79.886475019532824
 30
0.0
 40
2.049999999999998
 50
0.0
 51
180.0000050000005
  0
ARC
  5
2B10
  8
0
 10
369.64345020949082
 20
79.886475019532824
 30
0.0
 40
2.049999999999998
 50
180.0000050000005
 51
0.0
  0
ARC
  5
2B11
  8
0
 10
375.75445720949079
 20
80.614533019532814
 30
0.0
 40
0.75
 50
180.0000050000005
 51
0.0
  0
ARC
  5
2B12
  8
0
 10
375.75445720949079
 20
80.614533019532814
 30
0.0
 40
0.75
 50
0.0
 51
180.0000050000005
  0
ARC
  5
2B13
  8
0
 10
378.75428920949082
 20
80.582627019532794
 30
0.0
 40
0.75
 50
179.9999949999995
 51
0.0
  0
ARC
  5
2B14
  8
0
 10
378.75428920949082
 20
80.582627019532794
 30
0.0
 40
0.75
 50
0.0
 51
179.9999949999995
  0
ARC
  5
2B15
  8
0
 10
381.73764220949079
 20
80.267136019532884
 30
0.0
 40
0.75
 50
179.9999949999995
 51
0.0
  0
ARC
  5
2B16
  8
0
 10
381.73764220949079
 20
80.267136019532884
 30
0.0
 40
0.75
 50
0.0
 51
179.9999949999995
  0
ARC
  5
2B17
  8
0
 10
384.71649320949081
 20
79.91143101953287
 30
0.0
 40
0.75
 50
179.9999949999995
 51
0.0
  0
ARC
  5
2B18
  8
0
 10
384.71649320949081
 20
79.91143101953287
 30
0.0
 40
0.75
 50
0.0
 51
179.9999949999995
  0
ARC
  5
2B19
  8
0
 10
387.69017220949081
 20
79.514924019532828
 30
0.0
 40
0.75
 50
0.0
 51
180.0000050000005
  0
ARC
  5
2B1A
  8
0
 10
387.69017220949081
 20
79.514924019532828
 30
0.0
 40
0.75
 50
180.0000050000005
 51
0.0
  0
LINE
  5
2B1B
  8
0
 10
413.71716520949059
 20
76.428010019532849
 30
0.0
 11
413.71716520949059
 21
74.131302019532811
 31
0.0
  0
LINE
  5
2B1C
  8
0
 10
413.71716520949059
 20
74.131302019532811
 30
0.0
 11
430.68844820949079
 21
74.131302019532811
 31
0.0
  0
LINE
  5
2B1D
  8
0
 10
430.68844820949079
 20
74.131302019532811
 30
0.0
 11
430.68844820949079
 21
75.44214701953284
 31
0.0
  0
LINE
  5
2B1E
  8
0
 10
430.68844820949079
 20
75.44214701953284
 30
0.0
 11
418.71716520949082
 21
76.271828019532805
 31
0.0
  0
LINE
  5
2B1F
  8
0
 10
418.71716520949082
 20
76.271828019532805
 30
0.0
 11
418.78630220949083
 21
77.269440019532837
 31
0.0
  0
LINE
  5
2B20
  8
0
 10
418.78630220949083
 20
77.269440019532837
 30
0.0
 11
420.78151120949082
 21
77.131158019532819
 31
0.0
  0
LINE
  5
2B21
  8
0
 10
420.78151120949082
 20
77.131158019532819
 30
0.0
 11
420.7860892094908
 21
77.197053019532859
 31
0.0
  0
POLYLINE
  5
2B22
  8
0
 66
     1
 10
0.0
 20
0.0
 30
0.0
  0
VERTEX
  5
547D
  8
0
 10
420.7860892094908
 20
77.197053019532859
 30
0.0
  0
VERTEX
  5
547E
  8
0
 10
416.4574452094908
 20
77.998154019532862
 30
0.0
  0
VERTEX
  5
547F
  8
0
 10
411.75297720949078
 20
78.825349019532823
 30
0.0
  0
VERTEX
  5
5480
  8
0
 10
402.32821820949079
 20
80.45776401953286
 30
0.0
  0
VERTEX
  5
5481
  8
0
 10
397.63510320949081
 20
81.253281019532821
 30
0.0
  0
VERTEX
  5
5482
  8
0
 10
392.5354782094908
 20
82.081040019532864
 30
0.0
  0
VERTEX
  5
5483
  8
0
 10
389.99084620949083
 20
82.467576019532814
 30
0.0
  0
VERTEX
  5
5484
  8
0
 10
386.46112220949078
 20
82.962540019532867
 30
0.0
  0
VERTEX
  5
5485
  8
0
 10
382.93223720949078
 20
83.401742019532875
 30
0.0
  0
VERTEX
  5
5486
  8
0
 10
379.24605020949082
 20
83.799683019532807
 30
0.0
  0
VERTEX
  5
5487
  8
0
 10
375.5520492094908
 20
84.146378019532804
 30
0.0
  0
VERTEX
  5
5488
  8
0
 10
370.87639020949069
 20
84.528733019532865
 30
0.0
  0
VERTEX
  5
5489
  8
0
 10
366.2092002094908
 20
84.845254019532817
 30
0.0
  0
VERTEX
  5
548A
  8
0
 10
363.87063820949089
 20
84.976517019532864
 30
0.0
  0
VERTEX
  5
548B
  8
0
 10
361.52609420949079
 20
85.08795201953285
 30
0.0
  0
VERTEX
  5
548C
  8
0
 10
358.05354520949078
 20
85.211594019532868
 30
0.0
  0
VERTEX
  5
548D
  8
0
 10
354.5916312094908
 20
85.282212019532821
 30
0.0
  0
VERTEX
  5
548E
  8
0
 10
350.64345020949082
 20
85.298760019532807
 30
0.0
  0
SEQEND
  5
548F
  8
0
  0
LINE
  5
2B23
  8
0
 10
350.64345020949082
 20
85.298760019532807
 30
0.0
 11
350.64345020949082
 21
83.189774019532791
 31
0.0
  0
LINE
  5
2B24
  8
0
 10
350.64345020949082
 20
83.189774019532791
 30
0.0
 11
342.64345020949082
 21
83.189774019532791
 31
0.0
  0
LINE
  5
2B25
  8
0
 10
342.64345020949082
 20
83.189774019532791
 30
0.0
 11
342.64345020949082
 21
85.089776019532849
 31
0.0
  0
POLYLINE
  5
2B26
  8
0
 66
     1
 10
0.0
 20
0.0
 30
0.0
  0
VERTEX
  5
5490
  8
0
 10
342.64345020949082
 20
85.089776019532849
 30
0.0
  0
VERTEX
  5
5491
  8
0
 10
340.43676920949082
 20
84.939347019532818
 30
0.0
  0
VERTEX
  5
5492
  8
0
 10
339.33494720949079
 20
84.844666019532823
 30
0.0
  0
VERTEX
  5
5493
  8
0
 10
337.57795920949081
 20
84.659142019532837
 30
0.0
  0
VERTEX
  5
5494
  8
0
 10
335.82602120949082
 20
84.430344019532868
 30
0.0
  0
VERTEX
  5
5495
  8
0
 10
334.35104520949079
 20
84.201005019532829
 30
0.0
  0
VERTEX
  5
5496
  8
0
 10
332.8815322094909
 20
83.938935019532821
 30
0.0
  0
VERTEX
  5
5497
  8
0
 10
331.26555020949081
 20
83.618081019532823
 30
0.0
  0
VERTEX
  5
5498
  8
0
 10
329.6546952094908
 20
83.272545019532842
 30
0.0
  0
SEQEND
  5
5499
  8
0
  0
POLYLINE
  5
2B27
  8
0
 66
     1
 10
0.0
 20
0.0
 30
0.0
  0
VERTEX
  5
549A
  8
0
 10
329.6546952094908
 20
83.272545019532842
 30
0.0
  0
VERTEX
  5
549B
  8
0
 10
327.58629020949081
 20
82.793282019532825
 30
0.0
  0
VERTEX
  5
549C
  8
0
 10
326.55688620949081
 20
82.533433019532808
 30
0.0
  0
VERTEX
  5
549D
  8
0
 10
325.53276220949078
 20
82.25378501953287
 30
0.0
  0
VERTEX
  5
549E
  8
0
 10
324.5153982094908
 20
81.950730019532827
 30
0.0
  0
VERTEX
  5
549F
  8
0
 10
323.5051742094908
 20
81.624520019532824
 30
0.0
  0
SEQEND
  5
54A0
  8
0
  0
LINE
  5
2B28
  8
0
 10
323.5051742094908
 20
81.624520019532824
 30
0.0
 11
323.07165720949081
 21
81.475052019532811
 31
0.0
  0
POLYLINE
  5
2B29
  8
0
 66
     1
 10
0.0
 20
0.0
 30
0.0
  0
VERTEX
  5
54A1
  8
0
 10
323.07165720949081
 20
81.475052019532811
 30
0.0
  0
VERTEX
  5
54A2
  8
0
 10
321.8830582094908
 20
81.043366019532868
 30
0.0
  0
VERTEX
  5
54A3
  8
0
 10
319.51567220949079
 20
80.153046019532823
 30
0.0
  0
SEQEND
  5
54A4
  8
0
  0
LINE
  5
2B2A
  8
0
 10
319.51567220949079
 20
80.153046019532823
 30
0.0
 11
319.07579220949083
 21
79.984772019532826
 31
0.0
  0
ARC
  5
2B2B
  8
0
 10
328.51596220949079
 20
55.507126019532862
 30
0.0
 40
26.234819000000002
 50
111.0898779999998
 51
113.1188680000005
  0
ARC
  5
2B2C
  8
0
 10
324.39651720949081
 20
65.141358019532859
 30
0.0
 40
15.756596
 50
113.0976670000011
 51
116.4200960000007
  0
POLYLINE
  5
2B2D
  8
0
 66
     1
 10
0.0
 20
0.0
 30
0.0
  0
VERTEX
  5
54A5
  8
0
 10
317.38568320949082
 20
79.252160019532866
 30
0.0
  0
VERTEX
  5
54A6
  8
0
 10
316.64007720949081
 20
78.858376019532827
 30
0.0
  0
VERTEX
  5
54A7
  8
0
 10
316.15387120949077
 20
78.576096019532869
 30
0.0
  0
VERTEX
  5
54A8
  8
0
 10
315.20306620949088
 20
77.975693019532841
 30
0.0
  0
SEQEND
  5
54A9
  8
0
  0
LINE
  5
2B2E
  8
0
 10
315.20306620949088
 20
77.975693019532841
 30
0.0
 11
314.78497520949082
 21
77.698861019532814
 31
0.0
  0
LINE
  5
2B2F
  8
0
 10
314.78497520949082
 20
77.698861019532814
 30
0.0
 11
314.3756122094909
 21
77.422394019532817
 31
0.0
  0
ARC
  5
2B30
  8
0
 10
333.2910022094909
 20
49.46484401953284
 30
0.0
 40
33.755140000000011
 50
124.0813009999999
 51
125.3657859999993
  0
LINE
  5
2B31
  8
0
 10
313.75377120949071
 20
76.991196019532808
 30
0.0
 11
313.54577820949078
 21
76.84120201953283
 31
0.0
  0
LINE
  5
2B32
  8
0
 10
313.54577820949078
 20
76.84120201953283
 30
0.0
 11
313.33183520949081
 21
76.683129019532814
 31
0.0
  0
LINE
  5
2B33
  8
0
 10
313.33183520949081
 20
76.683129019532814
 30
0.0
 11
313.10899520949079
 21
76.513932019532817
 31
0.0
  0
LINE
  5
2B34
  8
0
 10
313.10899520949079
 20
76.513932019532817
 30
0.0
 11
312.87722920949079
 21
76.331673019532829
 31
0.0
  0
ARC
  5
2B35
  8
0
 10
323.67402820949081
 20
62.844453019532871
 30
0.0
 40
17.276416000000001
 50
128.678018000001
 51
130.11571799999891
  0
ARC
  5
2B36
  8
0
 10
319.79500020949081
 20
67.553101019532846
 30
0.0
 40
11.176515999999999
 50
130.46163999999899
 51
134.66294400000061
  0
LINE
  5
2B37
  8
0
 10
311.93844820949079
 20
75.502640019532862
 30
0.0
 11
311.90568720949079
 21
75.464387019532865
 31
0.0
  0
LINE
  5
2B38
  8
0
 10
311.90568720949079
 20
75.464387019532865
 30
0.0
 11
315.56869720949078
 21
76.105004019532828
 31
0.0
  0
LINE
  5
2B39
  8
0
 10
315.56869720949078
 20
76.105004019532828
 30
0.0
 11
315.91386620949078
 21
74.131302019532811
 31
0.0
  0
LINE
  5
2B3A
  8
0
 10
315.91386620949078
 20
74.131302019532811
 30
0.0
 11
316.03445620949083
 21
74.132798019532842
 31
0.0
  0
POLYLINE
  5
2B3B
  8
0
 66
     1
 10
0.0
 20
0.0
 30
0.0
  0
VERTEX
  5
54AA
  8
0
 10
316.03445620949083
 20
74.132798019532842
 30
0.0
  0
VERTEX
  5
54AB
  8
0
 10
318.13540820949078
 20
74.187035019532843
 30
0.0
  0
VERTEX
  5
54AC
  8
0
 10
319.1848922094909
 20
74.240281019532858
 30
0.0
  0
VERTEX
  5
54AD
  8
0
 10
320.7576312094908
 20
74.351334019532828
 30
0.0
  0
VERTEX
  5
54AE
  8
0
 10
321.97375720949083
 20
74.45626101953286
 30
0.0
  0
VERTEX
  5
54AF
  8
0
 10
323.18837120949081
 20
74.575349019532823
 30
0.0
  0
SEQEND
  5
54B0
  8
0
  0
POLYLINE
  5
2B3C
  8
0
 66
     1
 10
0.0
 20
0.0
 30
0.0
  0
VERTEX
  5
54B1
  8
0
 10
323.18837120949081
 20
74.575349019532823
 30
0.0
  0
VERTEX
  5
54B2
  8
0
 10
326.31262420949082
 20
74.920960019532842
 30
0.0
  0
VERTEX
  5
54B3
  8
0
 10
328.39602820949079
 20
75.145287019532859
 30
0.0
  0
VERTEX
  5
54B4
  8
0
 10
331.5198992094908
 20
75.416146019532803
 30
0.0
  0
VERTEX
  5
54B5
  8
0
 10
332.90890720949079
 20
75.50982701953285
 30
0.0
  0
VERTEX
  5
54B6
  8
0
 10
335.68843220949083
 20
75.675774019532867
 30
0.0
  0
SEQEND
  5
54B7
  8
0
  0
POLYLINE
  5
2B3D
  8
0
 66
     1
 10
0.0
 20
0.0
 30
0.0
  0
VERTEX
  5
54B8
  8
0
 10
335.68843220949083
 20
75.675774019532867
 30
0.0
  0
VERTEX
  5
54B9
  8
0
 10
341.70440820949079
 20
76.03135701953282
 30
0.0
  0
VERTEX
  5
54BA
  8
0
 10
344.71264820949079
 20
76.20463601953287
 30
0.0
  0
VERTEX
  5
54BB
  8
0
 10
349.22601520949081
 20
76.444047019532803
 30
0.0
  0
VERTEX
  5
54BC
  8
0
 10
353.16998520949079
 20
76.622803019532839
 30
0.0
  0
VERTEX
  5
54BD
  8
0
 10
357.11535820949081
 20
76.769379019532821
 30
0.0
  0
VERTEX
  5
54BE
  8
0
 10
361.87640520949083
 20
76.909920019532819
 30
0.0
  0
VERTEX
  5
54BF
  8
0
 10
366.63838420949082
 20
77.01509201953283
 30
0.0
  0
VERTEX
  5
54C0
  8
0
 10
371.4009572094908
 20
77.08415301953282
 30
0.0
  0
VERTEX
  5
54C1
  8
0
 10
374.97314620949078
 20
77.11135901953287
 30
0.0
  0
VERTEX
  5
54C2
  8
0
 10
378.54544220949077
 20
77.11796601953283
 30
0.0
  0
VERTEX
  5
54C3
  8
0
 10
384.33639720949083
 20
77.089638019532842
 30
0.0
  0
VERTEX
  5
54C4
  8
0
 10
390.1269852094909
 20
77.01844801953284
 30
0.0
  0
VERTEX
  5
54C5
  8
0
 10
395.94397120949083
 20
76.911095019532866
 30
0.0
  0
VERTEX
  5
54C6
  8
0
 10
401.7603782094908
 20
76.776047019532811
 30
0.0
  0
VERTEX
  5
54C7
  8
0
 10
407.11822720949061
 20
76.633149019532866
 30
0.0
  0
VERTEX
  5
54C8
  8
0
 10
413.71716520949059
 20
76.428010019532849
 30
0.0
  0
SEQEND
  5
54C9
  8
0
  0
LINE
  5
2B3E
  8
0
 10
350.64345020949082
 20
80.098237019532817
 30
0.0
 11
342.64345020949082
 21
80.098237019532817
 31
0.0
  0
LINE
  5
2B3F
  8
0
 10
342.64345020949082
 20
80.098237019532817
 30
0.0
 11
342.64345020949082
 21
78.09823701953286
 31
0.0
  0
LINE
  5
2B40
  8
0
 10
342.64345020949082
 20
78.09823701953286
 30
0.0
 11
350.64345020949082
 21
78.09823701953286
 31
0.0
  0
LINE
  5
2B41
  8
0
 10
350.64345020949082
 20
78.09823701953286
 30
0.0
 11
350.64345020949082
 21
80.098237019532817
 31
0.0
  0
ARC
  5
2B42
  8
0
 10
435.99166442239277
 20
69.707746997107677
 30
0.0
 40
2.049999999999998
 50
180.0
 51
0.0000050000005032
  0
ARC
  5
2B43
  8
0
 10
435.99166442239277
 20
69.707746997107677
 30
0.0
 40
2.049999999999998
 50
0.0000050000005032
 51
180.0
  0
ARC
  5
2B44
  8
0
 10
393.99166442239289
 20
67.820280997107716
 30
0.0
 40
2.049999999999998
 50
180.0
 51
0.0000050000005032
  0
ARC
  5
2B45
  8
0
 10
393.99166442239289
 20
67.820280997107716
 30
0.0
 40
2.049999999999998
 50
0.0000050000005032
 51
180.0
  0
ARC
  5
2B46
  8
0
 10
387.88065742239291
 20
67.092222997107726
 30
0.0
 40
0.75
 50
0.0000050000005032
 51
180.0
  0
ARC
  5
2B47
  8
0
 10
387.88065742239291
 20
67.092222997107726
 30
0.0
 40
0.75
 50
180.0
 51
0.0000050000005032
  0
ARC
  5
2B48
  8
0
 10
384.88082542239289
 20
67.124128997107732
 30
0.0
 40
0.75
 50
359.9999949999995
 51
180.0
  0
ARC
  5
2B49
  8
0
 10
384.88082542239289
 20
67.124128997107732
 30
0.0
 40
0.75
 50
180.0
 51
359.9999949999995
  0
ARC
  5
2B4A
  8
0
 10
381.89747242239292
 20
67.439619997107684
 30
0.0
 40
0.75
 50
359.9999949999995
 51
180.0
  0
ARC
  5
2B4B
  8
0
 10
381.89747242239292
 20
67.439619997107684
 30
0.0
 40
0.75
 50
180.0
 51
359.9999949999995
  0
ARC
  5
2B4C
  8
0
 10
378.91862142239279
 20
67.795324997107684
 30
0.0
 40
0.75
 50
359.9999949999995
 51
180.0
  0
ARC
  5
2B4D
  8
0
 10
378.91862142239279
 20
67.795324997107684
 30
0.0
 40
0.75
 50
180.0
 51
359.9999949999995
  0
ARC
  5
2B4E
  8
0
 10
375.94494242239278
 20
68.191831997107727
 30
0.0
 40
0.75
 50
180.0
 51
0.0000050000005032
  0
ARC
  5
2B4F
  8
0
 10
375.94494242239278
 20
68.191831997107727
 30
0.0
 40
0.75
 50
0.0000050000005032
 51
180.0
  0
LINE
  5
2B50
  8
0
 10
349.91794942239289
 20
71.278745997107706
 30
0.0
 11
349.91794942239289
 21
73.575453997107701
 31
0.0
  0
LINE
  5
2B51
  8
0
 10
349.91794942239289
 20
73.575453997107701
 30
0.0
 11
332.94666642239292
 21
73.575453997107701
 31
0.0
  0
LINE
  5
2B52
  8
0
 10
332.94666642239292
 20
73.575453997107701
 30
0.0
 11
332.94666642239292
 21
72.2646089971077
 31
0.0
  0
LINE
  5
2B53
  8
0
 10
332.94666642239292
 20
72.2646089971077
 30
0.0
 11
344.91794942239289
 21
71.434927997107707
 31
0.0
  0
LINE
  5
2B54
  8
0
 10
344.91794942239289
 20
71.434927997107707
 30
0.0
 11
344.84881242239283
 21
70.437315997107703
 31
0.0
  0
LINE
  5
2B55
  8
0
 10
344.84881242239283
 20
70.437315997107703
 30
0.0
 11
342.85360342239278
 21
70.575597997107707
 31
0.0
  0
LINE
  5
2B56
  8
0
 10
342.85360342239278
 20
70.575597997107707
 30
0.0
 11
342.84902542239291
 21
70.509702997107709
 31
0.0
  0
POLYLINE
  5
2B57
  8
0
 66
     1
 10
0.0
 20
0.0
 30
0.0
  0
VERTEX
  5
54CA
  8
0
 10
342.84902542239291
 20
70.509702997107709
 30
0.0
  0
VERTEX
  5
54CB
  8
0
 10
347.17766942239291
 20
69.708601997107664
 30
0.0
  0
VERTEX
  5
54CC
  8
0
 10
351.88213742239282
 20
68.881406997107703
 30
0.0
  0
VERTEX
  5
54CD
  8
0
 10
361.30689642239292
 20
67.24899199710768
 30
0.0
  0
VERTEX
  5
54CE
  8
0
 10
366.0000114223929
 20
66.453474997107719
 30
0.0
  0
VERTEX
  5
54CF
  8
0
 10
371.09963642239279
 20
65.625715997107704
 30
0.0
  0
VERTEX
  5
54D0
  8
0
 10
373.64426842239288
 20
65.239179997107726
 30
0.0
  0
VERTEX
  5
54D1
  8
0
 10
377.17399242239293
 20
64.744215997107688
 30
0.0
  0
VERTEX
  5
54D2
  8
0
 10
380.70287742239282
 20
64.305013997107665
 30
0.0
  0
VERTEX
  5
54D3
  8
0
 10
384.38906442239278
 20
63.907072997107718
 30
0.0
  0
VERTEX
  5
54D4
  8
0
 10
388.08306542239279
 20
63.560377997107707
 30
0.0
  0
VERTEX
  5
54D5
  8
0
 10
392.7587244223929
 20
63.178022997107689
 30
0.0
  0
VERTEX
  5
54D6
  8
0
 10
397.42591442239291
 20
62.861501997107709
 30
0.0
  0
VERTEX
  5
54D7
  8
0
 10
399.76447642239287
 20
62.730238997107683
 30
0.0
  0
VERTEX
  5
54D8
  8
0
 10
402.1090204223928
 20
62.618803997107698
 30
0.0
  0
VERTEX
  5
54D9
  8
0
 10
405.58156942239282
 20
62.495161997107679
 30
0.0
  0
VERTEX
  5
54DA
  8
0
 10
409.0434834223928
 20
62.424543997107719
 30
0.0
  0
VERTEX
  5
54DB
  8
0
 10
412.99166442239289
 20
62.407995997107719
 30
0.0
  0
SEQEND
  5
54DC
  8
0
  0
LINE
  5
2B58
  8
0
 10
412.99166442239289
 20
62.407995997107719
 30
0.0
 11
412.99166442239289
 21
64.516981997107749
 31
0.0
  0
LINE
  5
2B59
  8
0
 10
412.99166442239289
 20
64.516981997107749
 30
0.0
 11
420.99166442239289
 21
64.516981997107749
 31
0.0
  0
LINE
  5
2B5A
  8
0
 10
420.99166442239289
 20
64.516981997107749
 30
0.0
 11
420.99166442239289
 21
62.616979997107698
 31
0.0
  0
POLYLINE
  5
2B5B
  8
0
 66
     1
 10
0.0
 20
0.0
 30
0.0
  0
VERTEX
  5
54DD
  8
0
 10
420.99166442239289
 20
62.616979997107698
 30
0.0
  0
VERTEX
  5
54DE
  8
0
 10
423.19834542239289
 20
62.767408997107722
 30
0.0
  0
VERTEX
  5
54DF
  8
0
 10
424.30016742239269
 20
62.862089997107716
 30
0.0
  0
VERTEX
  5
54E0
  8
0
 10
426.05715542239273
 20
63.047613997107703
 30
0.0
  0
VERTEX
  5
54E1
  8
0
 10
427.80909342239278
 20
63.276411997107679
 30
0.0
  0
VERTEX
  5
54E2
  8
0
 10
429.2840694223928
 20
63.505750997107732
 30
0.0
  0
VERTEX
  5
54E3
  8
0
 10
430.7535824223927
 20
63.767820997107712
 30
0.0
  0
VERTEX
  5
54E4
  8
0
 10
432.36956442239278
 20
64.088674997107717
 30
0.0
  0
VERTEX
  5
54E5
  8
0
 10
433.9804194223928
 20
64.434210997107712
 30
0.0
  0
SEQEND
  5
54E6
  8
0
  0
POLYLINE
  5
2B5C
  8
0
 66
     1
 10
0.0
 20
0.0
 30
0.0
  0
VERTEX
  5
54E7
  8
0
 10
433.9804194223928
 20
64.434210997107712
 30
0.0
  0
VERTEX
  5
54E8
  8
0
 10
436.04882442239278
 20
64.913473997107701
 30
0.0
  0
VERTEX
  5
54E9
  8
0
 10
437.07822842239278
 20
65.173322997107732
 30
0.0
  0
VERTEX
  5
54EA
  8
0
 10
438.10235242239293
 20
65.452970997107684
 30
0.0
  0
VERTEX
  5
54EB
  8
0
 10
439.11971642239268
 20
65.756025997107713
 30
0.0
  0
VERTEX
  5
54EC
  8
0
 10
440.12994042239268
 20
66.082235997107716
 30
0.0
  0
SEQEND
  5
54ED
  8
0
  0
LINE
  5
2B5D
  8
0
 10
440.12994042239268
 20
66.082235997107716
 30
0.0
 11
440.56345742239279
 21
66.231703997107715
 31
0.0
  0
POLYLINE
  5
2B5E
  8
0
 66
     1
 10
0.0
 20
0.0
 30
0.0
  0
VERTEX
  5
54EE
  8
0
 10
440.56345742239279
 20
66.231703997107715
 30
0.0
  0
VERTEX
  5
54EF
  8
0
 10
441.75205642239268
 20
66.663389997107686
 30
0.0
  0
VERTEX
  5
54F0
  8
0
 10
444.11944242239292
 20
67.553709997107717
 30
0.0
  0
SEQEND
  5
54F1
  8
0
  0
LINE
  5
2B5F
  8
0
 10
444.11944242239292
 20
67.553709997107717
 30
0.0
 11
444.55932242239271
 21
67.721983997107714
 31
0.0
  0
ARC
  5
2B60
  8
0
 10
435.1191524223928
 20
92.199629997107692
 30
0.0
 40
26.234819000000002
 50
291.08987799999852
 51
293.11886800000059
  0
ARC
  5
2B61
  8
0
 10
439.23859742239279
 20
82.565397997107695
 30
0.0
 40
15.756596
 50
293.09766700000108
 51
296.42009600000051
  0
POLYLINE
  5
2B62
  8
0
 66
     1
 10
0.0
 20
0.0
 30
0.0
  0
VERTEX
  5
54F2
  8
0
 10
446.24943142239277
 20
68.454595997107674
 30
0.0
  0
VERTEX
  5
54F3
  8
0
 10
446.99503742239278
 20
68.848379997107713
 30
0.0
  0
VERTEX
  5
54F4
  8
0
 10
447.48124342239271
 20
69.130659997107671
 30
0.0
  0
VERTEX
  5
54F5
  8
0
 10
448.43204842239271
 20
69.731062997107699
 30
0.0
  0
SEQEND
  5
54F6
  8
0
  0
LINE
  5
2B63
  8
0
 10
448.43204842239271
 20
69.731062997107699
 30
0.0
 11
448.85013942239289
 21
70.007894997107712
 31
0.0
  0
LINE
  5
2B64
  8
0
 10
448.85013942239289
 20
70.007894997107712
 30
0.0
 11
449.25950242239293
 21
70.284361997107737
 31
0.0
  0
ARC
  5
2B65
  8
0
 10
430.34411242239293
 20
98.241911997107692
 30
0.0
 40
33.755140000000011
 50
304.08130099999943
 51
305.36578599999962
  0
LINE
  5
2B66
  8
0
 10
449.88134342239277
 20
70.715559997107732
 30
0.0
 11
450.08933642239271
 21
70.865553997107739
 31
0.0
  0
LINE
  5
2B67
  8
0
 10
450.08933642239271
 20
70.865553997107739
 30
0.0
 11
450.30327942239268
 21
71.023626997107741
 31
0.0
  0
LINE
  5
2B68
  8
0
 10
450.30327942239268
 20
71.023626997107741
 30
0.0
 11
450.52611942239281
 21
71.192823997107709
 31
0.0
  0
LINE
  5
2B69
  8
0
 10
450.52611942239281
 20
71.192823997107709
 30
0.0
 11
450.7578854223928
 21
71.375082997107711
 31
0.0
  0
ARC
  5
2B6A
  8
0
 10
439.96108642239273
 20
84.86230299710769
 30
0.0
 40
17.276416000000001
 50
308.67801800000223
 51
310.1157180000003
  0
ARC
  5
2B6B
  8
0
 10
443.84011442239267
 20
80.153654997107708
 30
0.0
 40
11.176515999999999
 50
310.46163999999868
 51
314.66294400000038
  0
LINE
  5
2B6C
  8
0
 10
451.69666642239281
 20
72.204115997107706
 30
0.0
 11
451.72942742239269
 21
72.24236899710769
 31
0.0
  0
LINE
  5
2B6D
  8
0
 10
451.72942742239269
 20
72.24236899710769
 30
0.0
 11
448.06641742239282
 21
71.601751997107741
 31
0.0
  0
LINE
  5
2B6E
  8
0
 10
448.06641742239282
 20
71.601751997107741
 30
0.0
 11
447.72124842239282
 21
73.575453997107701
 31
0.0
  0
LINE
  5
2B6F
  8
0
 10
447.72124842239282
 20
73.575453997107701
 30
0.0
 11
447.60065842239283
 21
73.573957997107684
 31
0.0
  0
POLYLINE
  5
2B70
  8
0
 66
     1
 10
0.0
 20
0.0
 30
0.0
  0
VERTEX
  5
54F7
  8
0
 10
447.60065842239283
 20
73.573957997107684
 30
0.0
  0
VERTEX
  5
54F8
  8
0
 10
445.49970642239282
 20
73.519720997107711
 30
0.0
  0
VERTEX
  5
54F9
  8
0
 10
444.45022242239293
 20
73.46647499710771
 30
0.0
  0
VERTEX
  5
54FA
  8
0
 10
442.87748342239269
 20
73.355421997107712
 30
0.0
  0
VERTEX
  5
54FB
  8
0
 10
441.66135742239283
 20
73.250494997107708
 30
0.0
  0
VERTEX
  5
54FC
  8
0
 10
440.44674342239279
 20
73.131406997107703
 30
0.0
  0
SEQEND
  5
54FD
  8
0
  0
POLYLINE
  5
2B71
  8
0
 66
     1
 10
0.0
 20
0.0
 30
0.0
  0
VERTEX
  5
54FE
  8
0
 10
440.44674342239279
 20
73.131406997107703
 30
0.0
  0
VERTEX
  5
54FF
  8
0
 10
437.32249042239289
 20
72.785795997107712
 30
0.0
  0
VERTEX
  5
5500
  8
0
 10
435.23908642239269
 20
72.561468997107681
 30
0.0
  0
VERTEX
  5
5501
  8
0
 10
432.11521542239279
 20
72.290609997107708
 30
0.0
  0
VERTEX
  5
5502
  8
0
 10
430.7262074223928
 20
72.196928997107705
 30
0.0
  0
VERTEX
  5
5503
  8
0
 10
427.94668242239283
 20
72.030981997107688
 30
0.0
  0
SEQEND
  5
5504
  8
0
  0
POLYLINE
  5
2B72
  8
0
 66
     1
 10
0.0
 20
0.0
 30
0.0
  0
VERTEX
  5
5505
  8
0
 10
427.94668242239283
 20
72.030981997107688
 30
0.0
  0
VERTEX
  5
5506
  8
0
 10
421.9307064223928
 20
71.67539899710772
 30
0.0
  0
VERTEX
  5
5507
  8
0
 10
418.92246642239269
 20
71.502119997107684
 30
0.0
  0
VERTEX
  5
5508
  8
0
 10
414.40909942239279
 20
71.262708997107723
 30
0.0
  0
VERTEX
  5
5509
  8
0
 10
410.46512942239281
 20
71.083952997107701
 30
0.0
  0
VERTEX
  5
550A
  8
0
 10
406.51975642239267
 20
70.937376997107705
 30
0.0
  0
VERTEX
  5
550B
  8
0
 10
401.75870942239283
 20
70.796835997107735
 30
0.0
  0
VERTEX
  5
550C
  8
0
 10
396.99673042239277
 20
70.69166399710771
 30
0.0
  0
VERTEX
  5
550D
  8
0
 10
392.23415742239291
 20
70.622602997107705
 30
0.0
  0
VERTEX
  5
550E
  8
0
 10
388.66196842239287
 20
70.595396997107684
 30
0.0
  0
VERTEX
  5
550F
  8
0
 10
385.08967242239288
 20
70.58878999710771
 30
0.0
  0
VERTEX
  5
5510
  8
0
 10
379.29871742239288
 20
70.617117997107712
 30
0.0
  0
VERTEX
  5
5511
  8
0
 10
373.50812942239281
 20
70.6883079971077
 30
0.0
  0
VERTEX
  5
5512
  8
0
 10
367.69114342239288
 20
70.795660997107689
 30
0.0
  0
VERTEX
  5
5513
  8
0
 10
361.87473642239291
 20
70.930708997107729
 30
0.0
  0
VERTEX
  5
5514
  8
0
 10
356.51688742239298
 20
71.073606997107689
 30
0.0
  0
VERTEX
  5
5515
  8
0
 10
349.91794942239289
 20
71.278745997107706
 30
0.0
  0
SEQEND
  5
5516
  8
0
  0
LINE
  5
2B73
  8
0
 10
412.99166442239289
 20
67.608518997107709
 30
0.0
 11
420.99166442239289
 21
67.608518997107709
 31
0.0
  0
LINE
  5
2B74
  8
0
 10
420.99166442239289
 20
67.608518997107709
 30
0.0
 11
420.99166442239289
 21
69.608518997107709
 31
0.0
  0
LINE
  5
2B75
  8
0
 10
420.99166442239289
 20
69.608518997107709
 30
0.0
 11
412.99166442239289
 21
69.608518997107709
 31
0.0
  0
LINE
  5
2B76
  8
0
 10
412.99166442239289
 20
69.608518997107709
 30
0.0
 11
412.99166442239289
 21
67.608518997107709
 31
0.0
  0
ARC
  5
39AF
  8
0
 10
275.19224423657482
 20
46.560286651455378
 30
0.0
 40
1.5
 50
313.89775600000041
 51
133.220134999999
  0
LINE
  5
39B0
  8
0
 10
258.10386623657479
 20
32.560286651455392
 30
0.0
 11
274.16502323657488
 21
47.653380651455393
 31
0.0
  0
LINE
  5
39B1
  8
0
 10
268.10386623657479
 20
32.560286651455392
 30
0.0
 11
258.10386623657479
 21
32.560286651455392
 31
0.0
  0
LINE
  5
39B2
  8
0
 10
270.04447823657478
 20
37.124426651455401
 30
0.0
 11
268.10386623657479
 21
32.560286651455392
 31
0.0
  0
LINE
  5
39B3
  8
0
 10
270.05393923657482
 20
37.146552651455409
 30
0.0
 11
270.04447823657478
 21
37.124426651455401
 31
0.0
  0
LINE
  5
39B4
  8
0
 10
270.12779123657481
 20
37.316397651455382
 30
0.0
 11
270.05393923657482
 21
37.146552651455409
 31
0.0
  0
LINE
  5
39B5
  8
0
 10
270.20097223657478
 20
37.479773651455382
 30
0.0
 11
270.12779123657481
 21
37.316397651455382
 31
0.0
  0
LINE
  5
39B6
  8
0
 10
270.27384823657491
 20
37.63740465145537
 30
0.0
 11
270.20097223657478
 21
37.479773651455382
 31
0.0
  0
LINE
  5
39B7
  8
0
 10
270.42179823657477
 20
37.9469826514554
 30
0.0
 11
270.27384823657491
 21
37.63740465145537
 31
0.0
  0
LINE
  5
39B8
  8
0
 10
270.5673052365749
 20
38.24537565145539
 30
0.0
 11
270.42179823657477
 21
37.9469826514554
 31
0.0
  0
LINE
  5
39B9
  8
0
 10
270.71946623657482
 20
38.55009365145537
 30
0.0
 11
270.5673052365749
 21
38.24537565145539
 31
0.0
  0
LINE
  5
39BA
  8
0
 10
270.87852423657489
 20
38.858771651455392
 30
0.0
 11
270.71946623657482
 21
38.55009365145537
 31
0.0
  0
ARC
  5
39BB
  8
0
 10
283.1053912365748
 20
32.549620651455371
 30
0.0
 40
13.758063999999999
 50
146.83197799999979
 51
152.70591300000021
  0
POLYLINE
  5
39BC
  8
0
 66
     1
 10
0.0
 20
0.0
 30
0.0
  0
VERTEX
  5
5517
  8
0
 10
272.96140923657481
 20
41.847815651455392
 30
0.0
  0
VERTEX
  5
5518
  8
0
 10
272.32969623657482
 20
41.076765651455382
 30
0.0
  0
VERTEX
  5
5519
  8
0
 10
272.0226282365748
 20
40.684508651455367
 30
0.0
  0
VERTEX
  5
551A
  8
0
 10
271.5893392365748
 20
40.076323651455368
 30
0.0
  0
SEQEND
  5
551B
  8
0
  0
POLYLINE
  5
39BD
  8
0
 66
     1
 10
0.0
 20
0.0
 30
0.0
  0
VERTEX
  5
551C
  8
0
 10
274.37779123657481
 20
43.545752651455352
 30
0.0
  0
VERTEX
  5
551D
  8
0
 10
273.8971392365749
 20
42.987074651455359
 30
0.0
  0
VERTEX
  5
551E
  8
0
 10
272.96140923657481
 20
41.847815651455392
 30
0.0
  0
SEQEND
  5
551F
  8
0
  0
ARC
  5
39BE
  8
0
 10
298.48246723657479
 20
22.28732265145538
 30
0.0
 40
32.139400000000002
 50
133.8125579999998
 51
138.59024800000029
  0
LINE
  5
39C3
  8
0
 10
270.04447823657478
 20
37.124426651455401
 30
0.0
 11
270.05393923657482
 21
37.146552651455409
 31
0.0
  0
LINE
  5
39C8
  8
0
 10
270.42179823657477
 20
37.9469826514554
 30
0.0
 11
270.5673052365749
 21
38.24537565145539
 31
0.0
  0
LINE
  5
482F
  8
0
 10
456.33137390694151
 20
73.745928423956912
 30
0.0
 11
452.58137390694128
 21
73.745928423956912
 31
0.0
  0
LINE
  5
4830
  8
0
 10
452.58137390694128
 20
73.745928423956912
 30
0.0
 11
450.18134990694142
 21
76.945925423956908
 31
0.0
  0
ARC
  5
4831
  8
0
 10
432.58137390694151
 20
63.745928423956912
 30
0.0
 40
22.0
 50
36.869902999998651
 51
89.999997000002296
  0
LINE
  5
4832
  8
0
 10
432.58137390694151
 20
85.745928423956912
 30
0.0
 11
392.58137390694151
 21
85.745928423956912
 31
0.0
  0
LINE
  5
4833
  8
0
 10
456.33137390694122
 20
73.745928423956912
 30
0.0
 11
452.58137390694128
 21
78.745928423956912
 31
0.0
  0
ARC
  5
4834
  8
0
 10
432.58137390694151
 20
63.745928423956912
 30
0.0
 40
25.0
 50
36.869902999998651
 51
89.999997000002296
  0
LINE
  5
4835
  8
0
 10
432.58137390694151
 20
88.745928423956897
 30
0.0
 11
393.58137390694151
 21
88.745928423956897
 31
0.0
  0
ARC
  5
4836
  8
0
 10
393.58137390694151
 20
87.745928423956912
 30
0.0
 40
1.0
 50
89.999997000002296
 51
180.0
  0
LINE
  5
4837
  8
0
 10
392.58137390694151
 20
85.745928423956912
 30
0.0
 11
392.58137390694151
 21
87.745928423956912
 31
0.0
  0
INSERT
  5
4839
  8
TEXT_COTE
  2
*U7
 10
0.0
 20
0.0
 30
0.0
  0
DIMENSION
  5
483B
  8
TEXT_COTE
  2
*D8
 10
600.0
 20
122.8803506052799
 30
0.0
 11
300.0
 21
124.7553506052799
 31
0.0
 70
     0
 13
0.0
 23
100.0
 33
0.0
 14
600.0
 24
100.0
 34
0.0
1001
ACAD
1000
DSTYLE
1002
{
1070
   287
1070
     3
1070
   287
1070
     3
1070
    41
1040
2.5
1070
    42
1040
0.625
1070
    43
1040
3.75
1070
    44
1040
1.25
1070
    73
1070
     0
1070
    74
1070
     0
1070
    77
1070
     1
1070
    78
1070
     8
1070
   140
1040
2.5
1070
   141
1040
2.5
1070
   143
1040
0.03937
1070
   147
1040
0.625
1070
   171
1070
     3
1070
   172
1070
     1
1070
   274
1070
     2
1070
   279
1070
     0
1070
   284
1070
     0
1070
   285
1070
     0
1070
   286
1070
     0
1002
}
  0
DIMENSION
  5
4848
  8
TEXT_COTE
  2
*D9
 10
621.17962054053226
 20
100.0
 30
0.0
 11
619.30462054053226
 21
50.000000000000092
 31
0.0
 70
     0
 13
600.0
 23
0.0
 33
0.0
 14
600.0
 24
100.0
 34
0.0
 50
270.0
1001
ACAD
1000
DSTYLE
1002
{
1070
   287
1070
     3
1070
   287
1070
     3
1070
    41
1040
2.5
1070
    42
1040
0.625
1070
    43
1040
3.75
1070
    44
1040
1.25
1070
    73
1070
     0
1070
    74
1070
     0
1070
    77
1070
     1
1070
    78
1070
     8
1070
   140
1040
2.5
1070
   141
1040
2.5
1070
   143
1040
0.03937
1070
   147
1040
0.625
1070
   171
1070
     3
1070
   172
1070
     1
1070
   274
1070
     2
1070
   279
1070
     0
1070
   284
1070
     0
1070
   285
1070
     0
1070
   286
1070
     0
1002
}
  0
VIEWPORT
  5
9C7
 67
     1
  8
0
 62
     0
 10
0.0
 20
0.0
 30
0.0
 40
1000.0
 41
1000.0
 68
     1
 69
     1
1001
ACAD
1000
MVIEW
1002
{
1070
    16
1010
0.0
1020
0.0
1030
0.0
1010
0.0
1020
0.0
1030
1.0
1040
0.0
1040
1000.0
1040
0.0
1040
0.0
1040
50.0
1040
0.0
1040
0.0
1070
     0
1070
   100
1070
     1
1070
     1
1070
     0
1070
     0
1070
     0
1070
     0
1040
0.0
1040
0.0
1040
0.0
1040
1.0
1040
1.0
1040
1.0
1040
1.0
1070
     0
1002
{
1002
}
1002
}
  0
ENDSEC
  0
EOF
