  0
SECTION
  2
HEADER
  9
$ACADVER
  1
AC1009
  9
$INSBASE
 10
0.0
 20
0.0
 30
0.0
  9
$EXTMIN
 10
-0.0157372610053699
 20
-0.0000406953896572
 30
-0.0000000000000109
  9
$EXTMAX
 10
625.21427380657451
 20
100.7025199174503
 30
0.0000000000000044
  9
$LIMMIN
 10
0.0
 20
0.0
  9
$LIMMAX
 10
420.0
 20
297.0
  9
$ORTHOMODE
 70
     0
  9
$REGENMODE
 70
     1
  9
$FILLMODE
 70
     1
  9
$QTEXTMODE
 70
     0
  9
$MIRRTEXT
 70
     1
  9
$DRAGMODE
 70
     2
  9
$LTSCALE
 40
1.0
  9
$OSMODE
 70
    37
  9
$ATTMODE
 70
     1
  9
$TEXTSIZE
 40
0.2
  9
$TRACEWID
 40
1.0
  9
$TEXTSTYLE
  7
STANDARD
  9
$CLAYER
  8
TEXT_DIMENSIUNI
  9
$CELTYPE
  6
BYLAYER
  9
$CECOLOR
 62
   256
  9
$DIMSCALE
 40
1.0
  9
$DIMASZ
 40
2.5
  9
$DIMEXO
 40
0.625
  9
$DIMDLI
 40
3.75
  9
$DIMRND
 40
0.0
  9
$DIMDLE
 40
0.0
  9
$DIMEXE
 40
1.25
  9
$DIMTP
 40
0.0
  9
$DIMTM
 40
0.0
  9
$DIMTXT
 40
2.5
  9
$DIMCEN
 40
2.5
  9
$DIMTSZ
 40
0.0
  9
$DIMTOL
 70
     0
  9
$DIMLIM
 70
     0
  9
$DIMTIH
 70
     0
  9
$DIMTOH
 70
     0
  9
$DIMSE1
 70
     0
  9
$DIMSE2
 70
     0
  9
$DIMTAD
 70
     1
  9
$DIMZIN
 70
     8
  9
$DIMBLK
  1

  9
$DIMASO
 70
     1
  9
$DIMSHO
 70
     1
  9
$DIMPOST
  1

  9
$DIMAPOST
  1

  9
$DIMALT
 70
     0
  9
$DIMALTD
 70
     3
  9
$DIMALTF
 40
0.03937
  9
$DIMLFAC
 40
1.0
  9
$DIMTOFL
 70
     1
  9
$DIMTVP
 40
0.0
  9
$DIMTIX
 70
     0
  9
$DIMSOXD
 70
     0
  9
$DIMSAH
 70
     0
  9
$DIMBLK1
  1

  9
$DIMBLK2
  1

  9
$DIMSTYLE
  2
STANDARD
  9
$DIMCLRD
 70
     0
  9
$DIMCLRE
 70
     0
  9
$DIMCLRT
 70
     0
  9
$DIMTFAC
 40
1.0
  9
$DIMGAP
 40
0.625
  9
$LUNITS
 70
     2
  9
$LUPREC
 70
     4
  9
$SKETCHINC
 40
1.0
  9
$FILLETRAD
 40
2.5
  9
$AUNITS
 70
     0
  9
$AUPREC
 70
     0
  9
$MENU
  1
.
  9
$ELEVATION
 40
0.0
  9
$PELEVATION
 40
0.0
  9
$THICKNESS
 40
0.0
  9
$LIMCHECK
 70
     0
  9
$BLIPMODE
 70
     0
  9
$CHAMFERA
 40
2.5
  9
$CHAMFERB
 40
2.5
  9
$SKPOLY
 70
     0
  9
$TDCREATE
 40
2305814.208333334
  9
$TDUPDATE
 40
2458293.8788426858
  9
$TDINDWG
 40
0.0394383449
  9
$TDUSRTIMER
 40
0.0394381019
  9
$USRTIMER
 70
     1
  9
$ANGBASE
 50
0.0
  9
$ANGDIR
 70
     0
  9
$PDMODE
 70
     0
  9
$PDSIZE
 40
0.0
  9
$PLINEWID
 40
0.0
  9
$COORDS
 70
     1
  9
$SPLFRAME
 70
     0
  9
$SPLINETYPE
 70
     6
  9
$SPLINESEGS
 70
     8
  9
$ATTDIA
 70
     0
  9
$ATTREQ
 70
     1
  9
$HANDLING
 70
     1
  9
$HANDSEED
  5
1046
  9
$SURFTAB1
 70
     6
  9
$SURFTAB2
 70
     6
  9
$SURFTYPE
 70
     6
  9
$SURFU
 70
     6
  9
$SURFV
 70
     6
  9
$UCSNAME
  2

  9
$UCSORG
 10
0.0
 20
0.0
 30
0.0
  9
$UCSXDIR
 10
1.0
 20
0.0
 30
0.0
  9
$UCSYDIR
 10
0.0
 20
1.0
 30
0.0
  9
$PUCSNAME
  2

  9
$PUCSORG
 10
0.0
 20
0.0
 30
0.0
  9
$PUCSXDIR
 10
1.0
 20
0.0
 30
0.0
  9
$PUCSYDIR
 10
0.0
 20
1.0
 30
0.0
  9
$USERI1
 70
     0
  9
$USERI2
 70
     0
  9
$USERI3
 70
     0
  9
$USERI4
 70
     0
  9
$USERI5
 70
     0
  9
$USERR1
 40
0.0
  9
$USERR2
 40
0.0
  9
$USERR3
 40
0.0
  9
$USERR4
 40
0.0
  9
$USERR5
 40
0.0
  9
$WORLDVIEW
 70
     1
  9
$SHADEDGE
 70
     3
  9
$SHADEDIF
 70
    70
  9
$TILEMODE
 70
     1
  9
$MAXACTVP
 70
    48
  9
$PLIMCHECK
 70
     0
  9
$PEXTMIN
 10
0.0
 20
0.0
 30
0.0
  9
$PEXTMAX
 10
600.0
 20
300.0
 30
2.0
  9
$PLIMMIN
 10
0.0
 20
0.0
  9
$PLIMMAX
 10
420.0
 20
297.0
  9
$UNITMODE
 70
     0
  9
$VISRETAIN
 70
     0
  9
$PLINEGEN
 70
     0
  9
$PSLTSCALE
 70
     1
  0
ENDSEC
  0
SECTION
  2
TABLES
  0
TABLE
  2
VPORT
 70
     1
  0
VPORT
  2
*ACTIVE
 70
     0
 10
0.0
 20
0.0
 11
1.0
 21
1.0
 12
312.59926827278451
 22
148.4999796523052
 13
0.0
 23
0.0
 14
1.0
 24
1.0
 15
0.0
 25
0.0
 16
0.0
 26
0.0
 36
1.0
 17
0.0
 27
0.0
 37
0.0
 40
300.56404118373439
 41
2.5150300601202402
 42
50.0
 43
0.0
 44
0.0
 50
0.0
 51
0.0
 71
     0
 72
 20000
 73
     1
 74
     1
 75
     0
 76
     0
 77
     0
 78
     0
  0
ENDTAB
  0
TABLE
  2
LTYPE
 70
     1
  0
LTYPE
  2
CONTINUOUS
 70
     0
  3
Solid line
 72
    65
 73
     0
 40
0.0
  0
ENDTAB
  0
TABLE
  2
LAYER
 70
     3
  0
LAYER
  2
0
 70
     0
 62
     1
  6
CONTINUOUS
  0
LAYER
  2
TEXT_DIMENSIUNI
 70
     0
 62
     4
  6
CONTINUOUS
  0
LAYER
  2
DEFPOINTS
 70
     0
 62
     7
  6
CONTINUOUS
  0
ENDTAB
  0
TABLE
  2
STYLE
 70
     2
  0
STYLE
  2
STANDARD
 70
     0
 40
0.0
 41
1.0
 50
0.0
 71
     0
 42
0.2
  3
txt
  4

  0
STYLE
  2
ANNOTATIVE
 70
     0
 40
0.0
 41
1.0
 50
0.0
 71
     0
 42
0.2
  3
txt
  4

  0
ENDTAB
  0
TABLE
  2
VIEW
 70
     1
  0
ENDTAB
  0
TABLE
  2
UCS
 70
     0
  0
ENDTAB
  0
TABLE
  2
APPID
 70
     6
  0
APPID
  2
ACAD
 70
     0
  0
APPID
  2
ACADANNOTATIVE
 70
     0
  0
APPID
  2
ACAD_MLEADERVER
 70
     0
  0
APPID
  2
DCO15
 70
     0
  0
APPID
  2
ACAD_EXEMPT_FROM_CAD_STANDARDS
 70
     0
  0
APPID
  2
ACAECLAYERSTANDARD
 70
     0
  0
ENDTAB
  0
TABLE
  2
DIMSTYLE
 70
     2
  0
DIMSTYLE
  2
STANDARD
 70
     0
  3

  4

  5

  6

  7

 40
1.0
 41
0.18
 42
0.0625
 43
0.38
 44
0.18
 45
0.0
 46
0.0
 47
0.0
 48
0.0
140
0.18
141
0.09
142
0.0
143
25.399999999999999
144
1.0
145
0.0
146
1.0
147
0.09
 71
     0
 72
     0
 73
     1
 74
     1
 75
     0
 76
     0
 77
     0
 78
     0
170
     0
171
     2
172
     0
173
     0
174
     0
175
     0
176
     0
177
     0
178
     0
  0
DIMSTYLE
  2
ANNOTATIVE
 70
     0
  3

  4

  5

  6

  7

 40
1.0
 41
0.18
 42
0.0625
 43
0.38
 44
0.18
 45
0.0
 46
0.0
 47
0.0
 48
0.0
140
0.18
141
0.09
142
0.0
143
25.399999999999999
144
1.0
145
0.0
146
1.0
147
0.09
 71
     0
 72
     0
 73
     1
 74
     1
 75
     0
 76
     0
 77
     0
 78
     0
170
     0
171
     2
172
     0
173
     0
174
     0
175
     0
176
     0
177
     0
178
     0
  0
ENDTAB
  0
ENDSEC
  0
SECTION
  2
BLOCKS
  0
BLOCK
  8
0
  2
$MODEL_SPACE
 70
     0
 10
0.0
 20
0.0
 30
0.0
  3
$MODEL_SPACE
  1

  0
ENDBLK
  5
EA9
  8
0
  0
BLOCK
 67
     1
  8
0
  2
$PAPER_SPACE
 70
     0
 10
0.0
 20
0.0
 30
0.0
  3
$PAPER_SPACE
  1

  0
ENDBLK
  5
EA5
 67
     1
  8
0
  0
BLOCK
  8
0
  2
*D2
 70
     1
 10
0.0
 20
0.0
 30
0.0
  3
*D2
  1

  0
LINE
  5
8FC
  8
TEXT_DIMENSIUNI
 62
     0
 10
0.0
 20
75.625
 30
0.0
 11
0.0000000000000001
 21
76.25
 31
0.0
  0
LINE
  5
8FD
  8
TEXT_DIMENSIUNI
 62
     0
 10
600.0
 20
75.625
 30
0.0
 11
600.0
 21
76.25
 31
0.0
  0
LINE
  5
8FE
  8
TEXT_DIMENSIUNI
 62
     0
 10
2.5
 20
75.0
 30
0.0
 11
597.5
 21
75.0
 31
0.0
  0
SOLID
  5
8FF
  8
TEXT_DIMENSIUNI
 62
     0
 10
2.5
 20
75.416666666666671
 30
0.0
 11
2.5
 21
74.583333333333329
 31
0.0
 12
0.0
 22
75.0
 32
0.0
 13
0.0
 23
75.0
 33
0.0
  0
SOLID
  5
900
  8
TEXT_DIMENSIUNI
 62
     0
 10
597.5
 20
75.416666666666671
 30
0.0
 11
597.5
 21
74.583333333333329
 31
0.0
 12
600.0
 22
75.0
 32
0.0
 13
600.0
 23
75.0
 33
0.0
  0
INSERT
  5
901
  8
TEXT_DIMENSIUNI
  2
*U3
 10
0.0
 20
0.0
 30
0.0
  0
POINT
  5
902
  8
DEFPOINTS
 62
     0
 10
0.0
 20
75.0
 30
0.0
  0
POINT
  5
903
  8
DEFPOINTS
 62
     0
 10
600.0
 20
75.0
 30
0.0
  0
POINT
  5
904
  8
DEFPOINTS
 62
     0
 10
600.0
 20
75.0
 30
0.0
  0
ENDBLK
  5
8FB
  8
0
  0
BLOCK
  8
0
  2
*U3
 70
     1
 10
0.0
 20
0.0
 30
0.0
  3
*U3
  1

  0
TEXT
  5
AC7
  8
TEXT_DIMENSIUNI
 62
     0
 10
297.08333333333331
 20
75.625
 30
0.0
 40
2.5
  1
600
  0
ENDBLK
  5
AC9
  8
0
  0
BLOCK
  8
0
  2
*D4
 70
     1
 10
0.0
 20
0.0
 30
0.0
  3
*D4
  1

  0
LINE
  5
ACA
  8
TEXT_DIMENSIUNI
 62
     0
 10
0.0
 20
75.625
 30
0.0
 11
0.0000000000000006
 21
85.551384824543234
 31
0.0
  0
LINE
  5
ACB
  8
TEXT_DIMENSIUNI
 62
     0
 10
600.0
 20
75.625
 30
0.0
 11
600.0
 21
85.551384824543234
 31
0.0
  0
LINE
  5
ACC
  8
TEXT_DIMENSIUNI
 62
     0
 10
2.5
 20
84.301384824543234
 30
0.0
 11
597.5
 21
84.301384824543234
 31
0.0
  0
SOLID
  5
ACD
  8
TEXT_DIMENSIUNI
 62
     0
 10
2.5
 20
84.718051491209891
 30
0.0
 11
2.5
 21
83.884718157876563
 31
0.0
 12
0.0000000000000006
 22
84.301384824543234
 32
0.0
 13
0.0000000000000006
 23
84.301384824543234
 33
0.0
  0
SOLID
  5
ACE
  8
TEXT_DIMENSIUNI
 62
     0
 10
597.5
 20
84.718051491209891
 30
0.0
 11
597.5
 21
83.884718157876563
 31
0.0
 12
600.0
 22
84.301384824543234
 32
0.0
 13
600.0
 23
84.301384824543234
 33
0.0
  0
TEXT
  5
AE0
  8
TEXT_DIMENSIUNI
 62
     0
 10
295.0
 20
81.751400000000004
 30
0.0
 40
2.5
  1
600
  0
POINT
  5
AD0
  8
DEFPOINTS
 62
     0
 10
0.0
 20
75.0
 30
0.0
  0
POINT
  5
AD1
  8
DEFPOINTS
 62
     0
 10
600.0
 20
75.0
 30
0.0
  0
POINT
  5
AD2
  8
DEFPOINTS
 62
     0
 10
600.0
 20
84.301384824543234
 30
0.0
  0
ENDBLK
  5
908
  8
0
  0
BLOCK
  8
0
  2
*D5
 70
     1
 10
0.0
 20
0.0
 30
0.0
  3
*D5
  1

  0
LINE
  5
AD3
  8
TEXT_DIMENSIUNI
 62
     0
 10
-0.625
 20
75.0
 30
0.0
 11
-6.712767672618372
 21
75.0
 31
0.0
  0
LINE
  5
AD4
  8
TEXT_DIMENSIUNI
 62
     0
 10
-0.625
 20
0.0000000000000002
 30
0.0
 11
-6.7127676726183907
 21
0.0000000000000019
 31
0.0
  0
LINE
  5
AD5
  8
TEXT_DIMENSIUNI
 62
     0
 10
-5.4627676726183747
 20
72.5
 30
0.0
 11
-5.462767672618388
 21
2.5
 31
0.0
  0
SOLID
  5
AD6
  8
TEXT_DIMENSIUNI
 62
     0
 10
-5.8794343392850399
 20
72.5
 30
0.0
 11
-5.0461010059517051
 21
72.5
 31
0.0
 12
-5.462767672618372
 22
75.0
 32
0.0
 13
-5.462767672618372
 23
75.0
 33
0.0
  0
SOLID
  5
AD7
  8
TEXT_DIMENSIUNI
 62
     0
 10
-5.879434339285055
 20
2.5
 30
0.0
 11
-5.0461010059517211
 21
2.5
 31
0.0
 12
-5.4627676726183907
 22
0.0000000000000015
 32
0.0
 13
-5.4627676726183907
 23
0.0000000000000015
 33
0.0
  0
TEXT
  5
AE1
  8
TEXT_DIMENSIUNI
 62
     0
 10
-12.3378
 20
33.075000000000003
 30
0.0
 40
2.5
  1
75
  0
POINT
  5
AD9
  8
DEFPOINTS
 62
     0
 10
0.0
 20
75.0
 30
0.0
  0
POINT
  5
ADA
  8
DEFPOINTS
 62
     0
 10
0.0
 20
0.0
 30
0.0
  0
POINT
  5
ADB
  8
DEFPOINTS
 62
     0
 10
-5.4627676726183907
 20
0.0000000000000015
 30
0.0
  0
ENDBLK
  5
915
  8
0
  0
BLOCK
  8
0
  2
*U6
 70
     1
 10
0.0
 20
0.0
 30
0.0
  3
*U6
  1

  0
TEXT
  5
ADD
  8
TEXT_DIMENSIUNI
 10
542.08977378529812
 20
67.989306506913977
 30
0.0
 40
5.0
  1
placaj 0.5 mm
  0
ENDBLK
  5
ADF
  8
0
  0
BLOCK
  8
0
  2
*D7
 70
     1
 10
0.0
 20
0.0
 30
0.0
  3
*D7
  1

  0
LINE
  5
E20
  8
TEXT_DIMENSIUNI
 62
     0
 10
0.0
 20
75.625
 30
0.0
 11
0.0000000000000016
 21
100.6868245055913
 31
0.0
  0
LINE
  5
E21
  8
TEXT_DIMENSIUNI
 62
     0
 10
600.0
 20
75.625
 30
0.0
 11
600.0
 21
100.6868245055913
 31
0.0
  0
LINE
  5
E22
  8
TEXT_DIMENSIUNI
 62
     0
 10
2.5
 20
99.436824505591304
 30
0.0
 11
597.5
 21
99.436824505591304
 31
0.0
  0
SOLID
  5
E23
  8
TEXT_DIMENSIUNI
 62
     0
 10
2.5
 20
99.853491172257961
 30
0.0
 11
2.5
 21
99.020157838924604
 31
0.0
 12
0.0000000000000015
 22
99.436824505591304
 32
0.0
 13
0.0000000000000015
 23
99.436824505591304
 33
0.0
  0
SOLID
  5
E24
  8
TEXT_DIMENSIUNI
 62
     0
 10
597.5
 20
99.853491172257961
 30
0.0
 11
597.5
 21
99.020157838924604
 31
0.0
 12
600.0
 22
99.436824505591304
 32
0.0
 13
600.0
 23
99.436824505591304
 33
0.0
  0
TEXT
  5
E32
  8
TEXT_DIMENSIUNI
 62
     0
 10
295.0
 20
96.886799999999994
 30
0.0
 40
2.5
  1
600
  0
POINT
  5
E26
  8
DEFPOINTS
 62
     0
 10
0.0
 20
75.0
 30
0.0
  0
POINT
  5
E27
  8
DEFPOINTS
 62
     0
 10
600.0
 20
75.0
 30
0.0
  0
POINT
  5
E28
  8
DEFPOINTS
 62
     0
 10
600.0
 20
99.436824505591304
 30
0.0
  0
ENDBLK
  5
C66
  8
0
  0
BLOCK
  8
0
  2
*D8
 70
     1
 10
0.0
 20
0.0
 30
0.0
  3
*D8
  1

  0
LINE
  5
E29
  8
TEXT_DIMENSIUNI
 62
     0
 10
600.625
 20
-0.0000000000000002
 30
0.0
 11
625.18498372650265
 21
-0.0000000000000071
 31
0.0
  0
LINE
  5
E2A
  8
TEXT_DIMENSIUNI
 62
     0
 10
600.625
 20
75.0
 30
0.0
 11
625.18498372650265
 21
74.999999999999986
 31
0.0
  0
LINE
  5
E2B
  8
TEXT_DIMENSIUNI
 62
     0
 10
623.93498372650265
 20
2.499999999999992
 30
0.0
 11
623.93498372650265
 21
72.499999999999986
 31
0.0
  0
SOLID
  5
E2C
  8
TEXT_DIMENSIUNI
 62
     0
 10
623.51831705983625
 20
2.499999999999992
 30
0.0
 11
624.35165039316951
 21
2.499999999999992
 31
0.0
 12
623.93498372650265
 22
-0.0000000000000068
 32
0.0
 13
623.93498372650265
 23
-0.0000000000000068
 33
0.0
  0
SOLID
  5
E2D
  8
TEXT_DIMENSIUNI
 62
     0
 10
623.51831705983625
 20
72.499999999999986
 30
0.0
 11
624.35165039316951
 21
72.499999999999986
 31
0.0
 12
623.93498372650265
 22
74.999999999999986
 32
0.0
 13
623.93498372650265
 23
74.999999999999986
 33
0.0
  0
TEXT
  5
E33
  8
TEXT_DIMENSIUNI
 62
     0
 10
617.05999999999995
 20
33.075000000000003
 30
0.0
 40
2.5
  1
75
  0
POINT
  5
E2F
  8
DEFPOINTS
 62
     0
 10
600.0
 20
0.0
 30
0.0
  0
POINT
  5
E30
  8
DEFPOINTS
 62
     0
 10
600.0
 20
75.0
 30
0.0
  0
POINT
  5
E31
  8
DEFPOINTS
 62
     0
 10
623.93498372650265
 20
74.999999999999986
 30
0.0
  0
ENDBLK
  5
C73
  8
0
  0
BLOCK
  8
0
  2
*U9
 70
     1
 10
0.0
 20
0.0
 30
0.0
  3
*U9
  1

  0
TEXT
  5
E1D
  8
TEXT_DIMENSIUNI
 10
540.50276832656346
 20
3.3433287281002322
 30
0.0
 40
5.0
  1
placaj 0.5 mm
  0
ENDBLK
  5
E1F
  8
0
  0
BLOCK
  8
0
  2
*D10
 70
     1
 10
0.0
 20
0.0
 30
0.0
  3
*D10
  1

  0
LINE
  5
1023
  8
TEXT_DIMENSIUNI
 62
     0
 10
0.0
 20
75.625
 30
0.0
 11
0.0000000000000016
 21
100.6868245055913
 31
0.0
  0
LINE
  5
1024
  8
TEXT_DIMENSIUNI
 62
     0
 10
600.0
 20
75.625
 30
0.0
 11
600.0
 21
100.6868245055913
 31
0.0
  0
LINE
  5
1025
  8
TEXT_DIMENSIUNI
 62
     0
 10
2.5000000000000009
 20
99.436824505591304
 30
0.0
 11
597.5
 21
99.436824505591304
 31
0.0
  0
SOLID
  5
1026
  8
TEXT_DIMENSIUNI
 62
     0
 10
2.5000000000000009
 20
99.853491172257975
 30
0.0
 11
2.5000000000000009
 21
99.020157838924646
 31
0.0
 12
0.0000000000000015
 22
99.436824505591304
 32
0.0
 13
0.0000000000000015
 23
99.436824505591304
 33
0.0
  0
SOLID
  5
1027
  8
TEXT_DIMENSIUNI
 62
     0
 10
597.5
 20
99.853491172257975
 30
0.0
 11
597.5
 21
99.020157838924646
 31
0.0
 12
600.0
 22
99.436824505591304
 32
0.0
 13
600.0
 23
99.436824505591304
 33
0.0
  0
TEXT
  8
TEXT_DIMENSIUNI
  40
2.5
  5
1044
  62
0
  72
0
  71
0
 10
295.000
 20
96.8868
 30
0.000000
  1
600
  0
POINT
  5
1029
  8
DEFPOINTS
 62
     0
 10
0.0
 20
75.0
 30
0.0
  0
POINT
  5
102A
  8
DEFPOINTS
 62
     0
 10
600.0
 20
75.0
 30
0.0
  0
POINT
  5
102B
  8
DEFPOINTS
 62
     0
 10
600.0
 20
99.436824505591304
 30
0.0
  0
ENDBLK
  5
1022
  8
0
  0
BLOCK
  8
0
  2
*D11
 70
     1
 10
0.0
 20
0.0
 30
0.0
  3
*D11
  1

  0
LINE
  5
102F
  8
TEXT_DIMENSIUNI
 62
     0
 10
600.625
 20
-0.0000000000000002
 30
0.0
 11
625.18498372650265
 21
-0.0000000000000071
 31
0.0
  0
LINE
  5
1030
  8
TEXT_DIMENSIUNI
 62
     0
 10
600.625
 20
75.0
 30
0.0
 11
625.18498372650265
 21
74.999999999999986
 31
0.0
  0
LINE
  5
1031
  8
TEXT_DIMENSIUNI
 62
     0
 10
623.93498372650265
 20
2.4999999999999929
 30
0.0
 11
623.93498372650265
 21
72.499999999999986
 31
0.0
  0
SOLID
  5
1032
  8
TEXT_DIMENSIUNI
 62
     0
 10
623.51831705983614
 20
2.4999999999999929
 30
0.0
 11
624.35165039316939
 21
2.4999999999999929
 31
0.0
 12
623.93498372650265
 22
-0.0000000000000068
 32
0.0
 13
623.93498372650265
 23
-0.0000000000000068
 33
0.0
  0
SOLID
  5
1033
  8
TEXT_DIMENSIUNI
 62
     0
 10
623.51831705983614
 20
72.499999999999986
 30
0.0
 11
624.35165039316939
 21
72.499999999999986
 31
0.0
 12
623.93498372650265
 22
74.999999999999986
 32
0.0
 13
623.93498372650265
 23
74.999999999999986
 33
0.0
  0
TEXT
  8
TEXT_DIMENSIUNI
  40
2.5
  5
1045
  62
0
  72
0
  71
0
 10
617.060
 20
33.0750
 30
0.000000
  1
75
  0
POINT
  5
1035
  8
DEFPOINTS
 62
     0
 10
600.0
 20
0.0
 30
0.0
  0
POINT
  5
1036
  8
DEFPOINTS
 62
     0
 10
600.0
 20
75.0
 30
0.0
  0
POINT
  5
1037
  8
DEFPOINTS
 62
     0
 10
623.93498372650265
 20
74.999999999999986
 30
0.0
  0
ENDBLK
  5
102E
  8
0
  0
ENDSEC
  0
SECTION
  2
ENTITIES
  0
LINE
  5
20
  8
0
 10
0.0
 20
75.0
 30
0.0
 11
0.0
 21
0.0
 31
0.0
  0
LINE
  5
B72
  8
0
 10
600.0
 20
0.0
 30
0.0
 11
600.0
 21
75.0
 31
0.0
  0
LINE
  5
B73
  8
0
 10
600.0
 20
0.0
 30
0.0
 11
0.0
 21
0.0
 31
0.0
  0
LINE
  5
B75
  8
0
 10
600.0
 20
75.0
 30
0.0
 11
0.0
 21
75.0
 31
0.0
  0
LINE
  5
B79
  8
0
 10
352.08324173708519
 20
5.0
 30
0.0
 11
243.0832417370853
 21
5.0
 31
0.0
  0
ARC
  5
B97
  8
0
 10
10.474927017552391
 20
12.29700566250915
 30
0.0
 40
5.0
 50
120.00000299999979
 51
239.99999700000001
  0
POLYLINE
  5
B98
  8
0
 66
     1
 10
0.0
 20
0.0
 30
0.0
  0
VERTEX
  5
EE0
  8
0
 10
7.9749270175523961
 20
7.9668816625091372
 30
0.0
  0
VERTEX
  5
EE1
  8
0
 10
8.084891017552394
 20
7.9142086625091679
 30
0.0
  0
VERTEX
  5
EE2
  8
0
 10
8.3543030175523896
 20
7.8109446625091419
 30
0.0
  0
VERTEX
  5
EE3
  8
0
 10
8.7444550175523901
 20
7.6892256625091022
 30
0.0
  0
VERTEX
  5
EE4
  8
0
 10
9.2277310175523901
 20
7.563248662509122
 30
0.0
  0
VERTEX
  5
EE5
  8
0
 10
9.7869430175523942
 20
7.4375696625091319
 30
0.0
  0
VERTEX
  5
EE6
  8
0
 10
10.641725017552391
 20
7.2728206625091589
 30
0.0
  0
VERTEX
  5
EE7
  8
0
 10
11.600091017552391
 20
7.1149536625091523
 30
0.0
  0
VERTEX
  5
EE8
  8
0
 10
12.64509701755239
 20
6.9651116625091163
 30
0.0
  0
VERTEX
  5
EE9
  8
0
 10
13.75973601755239
 20
6.8239906625091171
 30
0.0
  0
VERTEX
  5
EEA
  8
0
 10
16.144609017552391
 20
6.5679786625091179
 30
0.0
  0
VERTEX
  5
EEB
  8
0
 10
18.913877017552391
 20
6.324547662509131
 30
0.0
  0
VERTEX
  5
EEC
  8
0
 10
21.8308880175524
 20
6.11058966250914
 30
0.0
  0
VERTEX
  5
EED
  8
0
 10
24.458516017552391
 20
5.9450236625091284
 30
0.0
  0
VERTEX
  5
EEE
  8
0
 10
27.147634017552392
 20
5.7962046625091261
 30
0.0
  0
VERTEX
  5
EEF
  8
0
 10
30.705278017552398
 20
5.6248406625091443
 30
0.0
  0
VERTEX
  5
EF0
  8
0
 10
34.317052017552392
 20
5.4749156625091473
 30
0.0
  0
VERTEX
  5
EF1
  8
0
 10
38.257478017552387
 20
5.333947662509102
 30
0.0
  0
VERTEX
  5
EF2
  8
0
 10
42.216500017552377
 20
5.212319662509115
 30
0.0
  0
VERTEX
  5
EF3
  8
0
 10
46.948953017552398
 20
5.089585662509136
 30
0.0
  0
VERTEX
  5
EF4
  8
0
 10
51.656366017552394
 20
4.9893126625091204
 30
0.0
  0
VERTEX
  5
EF5
  8
0
 10
60.164765017552391
 20
4.859368662509155
 30
0.0
  0
VERTEX
  5
EF6
  8
0
 10
68.369226017552393
 20
4.7999276625091607
 30
0.0
  0
VERTEX
  5
EF7
  8
0
 10
70.474923017552399
 20
4.7970056625091502
 30
0.0
  0
SEQEND
  5
EF8
  8
0
  0
LINE
  5
B99
  8
0
 10
70.474923017552399
 20
4.7970056625091502
 30
0.0
 11
228.32428801755239
 21
4.7970056625091502
 31
0.0
  0
ARC
  5
B9A
  8
0
 10
228.32428801755239
 20
14.79700566250915
 30
0.0
 40
10.0
 50
269.99999699999989
 51
329.99999899999932
  0
LINE
  5
B9B
  8
0
 10
236.9845520175524
 20
9.7970056625091502
 30
0.0
 11
244.3432250175523
 21
22.542611662509088
 31
0.0
  0
ARC
  5
B9C
  8
0
 10
240.01308501755241
 20
25.042611662509088
 30
0.0
 40
5.0
 50
329.99999899999932
 51
85.999998000000232
  0
LINE
  5
B9D
  8
0
 10
240.3618710175524
 20
30.030427662509169
 30
0.0
 11
130.30053101755229
 21
37.72667066250915
 31
0.0
  0
ARC
  5
B9E
  8
0
 10
130.47492301755241
 20
40.220582662509159
 30
0.0
 40
2.5
 50
179.9999949999995
 51
266.00000000000028
  0
LINE
  5
B9F
  8
0
 10
127.9749230175524
 20
40.220582662509159
 30
0.0
 11
127.9749230175524
 21
44.854706662509152
 31
0.0
  0
ARC
  5
BA0
  8
0
 10
124.4749230175524
 20
44.854706662509152
 30
0.0
 40
3.5
 50
0.0
 51
93.356862999999834
  0
POLYLINE
  5
BA1
  8
0
 66
     1
 10
0.0
 20
0.0
 30
0.0
  0
VERTEX
  5
EF9
  8
0
 10
124.26998201755239
 20
48.348702662509133
 30
0.0
  0
VERTEX
  5
EFA
  8
0
 10
119.4832240175524
 20
48.036469662509127
 30
0.0
  0
VERTEX
  5
EFB
  8
0
 10
114.69883101755239
 20
47.660569662509133
 30
0.0
  0
VERTEX
  5
EFC
  8
0
 10
109.9185730175524
 20
47.219697662509127
 30
0.0
  0
VERTEX
  5
EFD
  8
0
 10
105.1443110175524
 20
46.712449662509108
 30
0.0
  0
VERTEX
  5
EFE
  8
0
 10
100.3779380175524
 20
46.137345662509112
 30
0.0
  0
VERTEX
  5
EFF
  8
0
 10
95.621423017552416
 20
45.492814662509133
 30
0.0
  0
VERTEX
  5
F00
  8
0
 10
90.876763017552435
 20
44.777207662509099
 30
0.0
  0
VERTEX
  5
F01
  8
0
 10
86.145944017552395
 20
43.988808662509129
 30
0.0
  0
VERTEX
  5
F02
  8
0
 10
83.727929017552384
 20
43.556061662509137
 30
0.0
  0
VERTEX
  5
F03
  8
0
 10
81.314355017552373
 20
43.103501662509139
 30
0.0
  0
VERTEX
  5
F04
  8
0
 10
78.974374017552378
 20
42.644669662509152
 30
0.0
  0
VERTEX
  5
F05
  8
0
 10
76.639085017552404
 20
42.166680662509108
 30
0.0
  0
VERTEX
  5
F06
  8
0
 10
73.48744301755238
 20
41.489045662509099
 30
0.0
  0
VERTEX
  5
F07
  8
0
 10
70.345590017552396
 20
40.775330662509127
 30
0.0
  0
VERTEX
  5
F08
  8
0
 10
67.214250017552388
 20
40.024994662509108
 30
0.0
  0
VERTEX
  5
F09
  8
0
 10
63.471566017552398
 20
39.075440662509102
 30
0.0
  0
VERTEX
  5
F0A
  8
0
 10
59.74640801755239
 20
38.071412662509161
 30
0.0
  0
VERTEX
  5
F0B
  8
0
 10
56.040109017552389
 20
37.011979662509141
 30
0.0
  0
VERTEX
  5
F0C
  8
0
 10
52.354028017552388
 20
35.896256662509131
 30
0.0
  0
VERTEX
  5
F0D
  8
0
 10
48.689508017552377
 20
34.723435662509132
 30
0.0
  0
VERTEX
  5
F0E
  8
0
 10
44.644761017552398
 20
33.352326662509142
 30
0.0
  0
VERTEX
  5
F0F
  8
0
 10
40.630105017552388
 20
31.90870766250913
 30
0.0
  0
VERTEX
  5
F10
  8
0
 10
38.633882017552402
 20
31.159134662509128
 30
0.0
  0
VERTEX
  5
F11
  8
0
 10
36.645845017552389
 20
30.391083662509121
 30
0.0
  0
VERTEX
  5
F12
  8
0
 10
34.667657017552393
 20
29.60503466250913
 30
0.0
  0
VERTEX
  5
F13
  8
0
 10
32.698056017552389
 20
28.80033266250917
 30
0.0
  0
VERTEX
  5
F14
  8
0
 10
29.43379701755239
 20
27.416977662509112
 30
0.0
  0
VERTEX
  5
F15
  8
0
 10
26.194818017552389
 20
25.98120266250913
 30
0.0
  0
VERTEX
  5
F16
  8
0
 10
22.98192701755239
 20
24.492714662509119
 30
0.0
  0
VERTEX
  5
F17
  8
0
 10
19.795865017552391
 20
22.95129566250915
 30
0.0
  0
VERTEX
  5
F18
  8
0
 10
16.637307017552391
 20
21.356782662509151
 30
0.0
  0
VERTEX
  5
F19
  8
0
 10
13.50682901755239
 20
19.70912266250912
 30
0.0
  0
VERTEX
  5
F1A
  8
0
 10
10.72918001755238
 20
18.18933266250917
 30
0.0
  0
VERTEX
  5
F1B
  8
0
 10
7.9749270175523961
 20
16.627129662509098
 30
0.0
  0
SEQEND
  5
F1C
  8
0
  0
ARC
  5
BA2
  8
0
 10
362.86477922939241
 20
60.761128268861057
 30
0.0
 40
5.0
 50
300.00000299999903
 51
59.999997000000917
  0
POLYLINE
  5
BA3
  8
0
 66
     1
 10
0.0
 20
0.0
 30
0.0
  0
VERTEX
  5
F1D
  8
0
 10
365.36477922939241
 20
65.091252268861069
 30
0.0
  0
VERTEX
  5
F1E
  8
0
 10
365.25481522939242
 20
65.14392526886104
 30
0.0
  0
VERTEX
  5
F1F
  8
0
 10
364.98540322939238
 20
65.247189268861064
 30
0.0
  0
VERTEX
  5
F20
  8
0
 10
364.59525122939237
 20
65.368908268861119
 30
0.0
  0
VERTEX
  5
F21
  8
0
 10
364.11197522939239
 20
65.494885268861069
 30
0.0
  0
VERTEX
  5
F22
  8
0
 10
363.55276322939238
 20
65.620564268861074
 30
0.0
  0
VERTEX
  5
F23
  8
0
 10
362.69798122939238
 20
65.785313268861046
 30
0.0
  0
VERTEX
  5
F24
  8
0
 10
361.73961522939243
 20
65.94318026886107
 30
0.0
  0
VERTEX
  5
F25
  8
0
 10
360.69460922939243
 20
66.093022268861091
 30
0.0
  0
VERTEX
  5
F26
  8
0
 10
359.57997022939242
 20
66.234143268861089
 30
0.0
  0
VERTEX
  5
F27
  8
0
 10
357.19509722939239
 20
66.490155268861088
 30
0.0
  0
VERTEX
  5
F28
  8
0
 10
354.42582922939238
 20
66.733586268861075
 30
0.0
  0
VERTEX
  5
F29
  8
0
 10
351.50881822939238
 20
66.947544268861066
 30
0.0
  0
VERTEX
  5
F2A
  8
0
 10
348.88119022939242
 20
67.113110268861064
 30
0.0
  0
VERTEX
  5
F2B
  8
0
 10
346.19207222939241
 20
67.261929268861081
 30
0.0
  0
VERTEX
  5
F2C
  8
0
 10
342.63442822939243
 20
67.433293268861064
 30
0.0
  0
VERTEX
  5
F2D
  8
0
 10
339.0226542293924
 20
67.58321826886106
 30
0.0
  0
VERTEX
  5
F2E
  8
0
 10
335.08222822939229
 20
67.724186268861104
 30
0.0
  0
VERTEX
  5
F2F
  8
0
 10
331.12320622939228
 20
67.845814268861091
 30
0.0
  0
VERTEX
  5
F30
  8
0
 10
326.39075322939237
 20
67.96854826886107
 30
0.0
  0
VERTEX
  5
F31
  8
0
 10
321.68334022939229
 20
68.0688212688611
 30
0.0
  0
VERTEX
  5
F32
  8
0
 10
313.1749412293924
 20
68.198765268861052
 30
0.0
  0
VERTEX
  5
F33
  8
0
 10
304.97048022939242
 20
68.258206268861045
 30
0.0
  0
VERTEX
  5
F34
  8
0
 10
302.86478322939229
 20
68.261128268861071
 30
0.0
  0
SEQEND
  5
F35
  8
0
  0
LINE
  5
BA4
  8
0
 10
302.86478322939229
 20
68.261128268861071
 30
0.0
 11
145.0154182293924
 21
68.261128268861114
 31
0.0
  0
ARC
  5
BA5
  8
0
 10
145.0154182293924
 20
58.261128268861107
 30
0.0
 40
10.0
 50
89.999996999999041
 51
149.99999899999909
  0
LINE
  5
BA6
  8
0
 10
136.3551542293923
 20
63.261128268861107
 30
0.0
 11
128.9964812293924
 21
50.515522268861162
 31
0.0
  0
ARC
  5
BA7
  8
0
 10
133.3266212293924
 20
48.015522268861162
 30
0.0
 40
5.0
 50
149.99999899999909
 51
265.99999800000103
  0
LINE
  5
BA8
  8
0
 10
132.9778352293923
 20
43.027706268861088
 30
0.0
 11
243.03917522939241
 21
35.331463268861057
 31
0.0
  0
ARC
  5
BA9
  8
0
 10
242.8647832293924
 20
32.837551268861041
 30
0.0
 40
2.5
 50
359.9999949999995
 51
86.000000000000213
  0
LINE
  5
BAA
  8
0
 10
245.3647832293924
 20
32.837551268861041
 30
0.0
 11
245.3647832293924
 21
28.203427268861049
 31
0.0
  0
ARC
  5
BAB
  8
0
 10
248.8647832293924
 20
28.203427268861049
 30
0.0
 40
3.5
 50
180.0
 51
273.3568629999981
  0
POLYLINE
  5
BAC
  8
0
 66
     1
 10
0.0
 20
0.0
 30
0.0
  0
VERTEX
  5
F36
  8
0
 10
249.06972422939239
 20
24.709431268861071
 30
0.0
  0
VERTEX
  5
F37
  8
0
 10
253.85648222939241
 20
25.021664268861059
 30
0.0
  0
VERTEX
  5
F38
  8
0
 10
258.64087522939241
 20
25.397564268861061
 30
0.0
  0
VERTEX
  5
F39
  8
0
 10
263.42113322939241
 20
25.83843626886107
 30
0.0
  0
VERTEX
  5
F3A
  8
0
 10
268.19539522939237
 20
26.345684268861081
 30
0.0
  0
VERTEX
  5
F3B
  8
0
 10
272.96176822939242
 20
26.920788268861092
 30
0.0
  0
VERTEX
  5
F3C
  8
0
 10
277.71828322939228
 20
27.56531926886106
 30
0.0
  0
VERTEX
  5
F3D
  8
0
 10
282.46294322939241
 20
28.280926268861091
 30
0.0
  0
VERTEX
  5
F3E
  8
0
 10
287.19376222939229
 20
29.069325268861071
 30
0.0
  0
VERTEX
  5
F3F
  8
0
 10
289.61177722939237
 20
29.50207226886107
 30
0.0
  0
VERTEX
  5
F40
  8
0
 10
292.0253512293923
 20
29.954632268861079
 30
0.0
  0
VERTEX
  5
F41
  8
0
 10
294.36533222939238
 20
30.413464268861048
 30
0.0
  0
VERTEX
  5
F42
  8
0
 10
296.70062122939242
 20
30.891453268861088
 30
0.0
  0
VERTEX
  5
F43
  8
0
 10
299.85226322939229
 20
31.569088268861091
 30
0.0
  0
VERTEX
  5
F44
  8
0
 10
302.99411622939238
 20
32.282803268861073
 30
0.0
  0
VERTEX
  5
F45
  8
0
 10
306.12545622939228
 20
33.033139268861078
 30
0.0
  0
VERTEX
  5
F46
  8
0
 10
309.86814022939228
 20
33.982693268861112
 30
0.0
  0
VERTEX
  5
F47
  8
0
 10
313.5932982293923
 20
34.986721268861061
 30
0.0
  0
VERTEX
  5
F48
  8
0
 10
317.29959722939242
 20
36.046154268861081
 30
0.0
  0
VERTEX
  5
F49
  8
0
 10
320.98567822939242
 20
37.161877268861083
 30
0.0
  0
VERTEX
  5
F4A
  8
0
 10
324.65019822939229
 20
38.334698268861082
 30
0.0
  0
VERTEX
  5
F4B
  8
0
 10
328.69494522939237
 20
39.705807268861072
 30
0.0
  0
VERTEX
  5
F4C
  8
0
 10
332.70960122939238
 20
41.14942626886107
 30
0.0
  0
VERTEX
  5
F4D
  8
0
 10
334.70582422939242
 20
41.898999268861061
 30
0.0
  0
VERTEX
  5
F4E
  8
0
 10
336.69386122939238
 20
42.667050268861097
 30
0.0
  0
VERTEX
  5
F4F
  8
0
 10
338.67204922939243
 20
43.453099268861067
 30
0.0
  0
VERTEX
  5
F50
  8
0
 10
340.64165022939238
 20
44.25780126886103
 30
0.0
  0
VERTEX
  5
F51
  8
0
 10
343.90590922939242
 20
45.641156268861089
 30
0.0
  0
VERTEX
  5
F52
  8
0
 10
347.14488822939239
 20
47.07693126886106
 30
0.0
  0
VERTEX
  5
F53
  8
0
 10
350.35777922939241
 20
48.565419268861092
 30
0.0
  0
VERTEX
  5
F54
  8
0
 10
353.5438412293924
 20
50.10683826886104
 30
0.0
  0
VERTEX
  5
F55
  8
0
 10
356.70239922939248
 20
51.701351268861067
 30
0.0
  0
VERTEX
  5
F56
  8
0
 10
359.83287722939241
 20
53.349011268861091
 30
0.0
  0
VERTEX
  5
F57
  8
0
 10
362.61052622939241
 20
54.86880126886102
 30
0.0
  0
VERTEX
  5
F58
  8
0
 10
365.36477922939241
 20
56.431004268861102
 30
0.0
  0
SEQEND
  5
F59
  8
0
  0
ARC
  5
BBC
  8
0
 10
8.0558179845911582
 20
46.398680313500101
 30
0.0
 40
0.75
 50
344.99999999999881
 51
165.00000499999899
  0
ARC
  5
BBD
  8
0
 10
8.0558179845911582
 20
46.398680313500101
 30
0.0
 40
0.75
 50
165.00000499999899
 51
344.99999999999881
  0
LINE
  5
BBE
  8
0
 10
40.46764555243179
 20
43.82817521511685
 30
0.0
 11
40.917381837441091
 21
45.885106120255891
 31
0.0
  0
LINE
  5
BBF
  8
0
 10
40.917381837441091
 20
45.885106120255891
 30
0.0
 11
38.963502266891169
 21
46.312282031143752
 31
0.0
  0
LINE
  5
BC0
  8
0
 10
38.963502266891169
 20
46.312282031143752
 30
0.0
 11
39.915141016378691
 21
50.664934846864973
 31
0.0
  0
POLYLINE
  5
BC1
  8
0
 66
     1
 10
0.0
 20
0.0
 30
0.0
  0
VERTEX
  5
F5A
  8
0
 10
39.915141016378691
 20
50.664934846864973
 30
0.0
  0
VERTEX
  5
F5B
  8
0
 10
38.982839033554797
 20
50.892651616574597
 30
0.0
  0
VERTEX
  5
F5C
  8
0
 10
37.438775165645097
 20
51.253474493843321
 30
0.0
  0
VERTEX
  5
F5D
  8
0
 10
35.498903433962141
 20
51.659823240851672
 30
0.0
  0
VERTEX
  5
F5E
  8
0
 10
34.328672262359312
 20
51.870230819624346
 30
0.0
  0
VERTEX
  5
F5F
  8
0
 10
33.153847277002797
 20
52.052648636890403
 30
0.0
  0
VERTEX
  5
F60
  8
0
 10
31.975273015371609
 20
52.209753313924182
 30
0.0
  0
SEQEND
  5
F61
  8
0
  0
POLYLINE
  5
BC2
  8
0
 66
     1
 10
0.0
 20
0.0
 30
0.0
  0
VERTEX
  5
F62
  8
0
 10
31.975273015371609
 20
52.209753313924182
 30
0.0
  0
VERTEX
  5
F63
  8
0
 10
30.575460594070819
 20
52.357366215788034
 30
0.0
  0
VERTEX
  5
F64
  8
0
 10
29.171284275375449
 20
52.460159381948358
 30
0.0
  0
VERTEX
  5
F65
  8
0
 10
27.765134842658089
 20
52.532711799059541
 30
0.0
  0
SEQEND
  5
F66
  8
0
  0
POLYLINE
  5
BC3
  8
0
 66
     1
 10
0.0
 20
0.0
 30
0.0
  0
VERTEX
  5
F67
  8
0
 10
27.765134842658089
 20
52.532711799059541
 30
0.0
  0
VERTEX
  5
F68
  8
0
 10
26.492241877728588
 20
52.579767111655642
 30
0.0
  0
VERTEX
  5
F69
  8
0
 10
25.855445202004269
 20
52.592318911395751
 30
0.0
  0
VERTEX
  5
F6A
  8
0
 10
24.900324157046668
 20
52.5896101286761
 30
0.0
  0
VERTEX
  5
F6B
  8
0
 10
23.468856070972269
 20
52.531828469517151
 30
0.0
  0
SEQEND
  5
F6C
  8
0
  0
POLYLINE
  5
BC4
  8
0
 66
     1
 10
0.0
 20
0.0
 30
0.0
  0
VERTEX
  5
F6D
  8
0
 10
23.468856070972269
 20
52.531828469517151
 30
0.0
  0
VERTEX
  5
F6E
  8
0
 10
22.733977163533719
 20
52.476648929370178
 30
0.0
  0
VERTEX
  5
F6F
  8
0
 10
21.266728690512139
 20
52.332732960357824
 30
0.0
  0
SEQEND
  5
F70
  8
0
  0
POLYLINE
  5
BC5
  8
0
 66
     1
 10
0.0
 20
0.0
 30
0.0
  0
VERTEX
  5
F71
  8
0
 10
21.266728690512139
 20
52.332732960357824
 30
0.0
  0
VERTEX
  5
F72
  8
0
 10
20.274813751575831
 20
52.234211396805492
 30
0.0
  0
VERTEX
  5
F73
  8
0
 10
19.780333799044971
 20
52.173957110938318
 30
0.0
  0
VERTEX
  5
F74
  8
0
 10
19.043910667680109
 20
52.050283361777247
 30
0.0
  0
SEQEND
  5
F75
  8
0
  0
ARC
  5
BC6
  8
0
 10
21.209835901379002
 20
41.369763781527404
 30
0.0
 40
10.897933999999999
 50
101.4637549999986
 51
103.2838090000013
  0
LINE
  5
BC7
  8
0
 10
18.705759364439359
 20
51.97611927935462
 30
0.0
 11
17.95686323467287
 21
48.550613584445671
 31
0.0
  0
LINE
  5
BC8
  8
0
 10
17.95686323467287
 20
48.550613584445671
 30
0.0
 11
14.04916327386621
 21
49.404950584185542
 31
0.0
  0
LINE
  5
BC9
  8
0
 10
14.04916327386621
 20
49.404950584185542
 30
0.0
 11
7.7331710287363631
 21
48.372480086867931
 31
0.0
  0
ARC
  5
BCA
  8
0
 10
8.0558179845911582
 20
46.398680313500101
 30
0.0
 40
1.999999999999998
 50
99.283926999998314
 51
273.75989800000048
  0
LINE
  5
BCB
  8
0
 10
8.1869515771065817
 20
44.402989941909603
 30
0.0
 11
30.68033780350493
 21
45.881172030949351
 31
0.0
  0
POLYLINE
  5
BCC
  8
0
 66
     1
 10
0.0
 20
0.0
 30
0.0
  0
VERTEX
  5
F76
  8
0
 10
30.68033780350493
 20
45.881172030949351
 30
0.0
  0
VERTEX
  5
F77
  8
0
 10
35.033362819270337
 20
44.983352804788282
 30
0.0
  0
VERTEX
  5
F78
  8
0
 10
37.208721026349401
 20
44.528601392249911
 30
0.0
  0
VERTEX
  5
F79
  8
0
 10
40.46764555243179
 20
43.82817521511685
 30
0.0
  0
SEQEND
  5
F7A
  8
0
  0
ARC
  5
BD4
  8
0
 10
8.0558179845911582
 20
54.398680313500101
 30
0.0
 40
0.75
 50
344.99999999999881
 51
165.00000499999899
  0
ARC
  5
BD5
  8
0
 10
8.0558179845911582
 20
54.398680313500101
 30
0.0
 40
0.75
 50
165.00000499999899
 51
344.99999999999881
  0
LINE
  5
BD6
  8
0
 10
40.46764555243179
 20
51.828175215116872
 30
0.0
 11
40.917381837441091
 21
53.885106120255841
 31
0.0
  0
LINE
  5
BD7
  8
0
 10
40.917381837441091
 20
53.885106120255841
 30
0.0
 11
38.963502266891169
 21
54.312282031143752
 31
0.0
  0
LINE
  5
BD8
  8
0
 10
38.963502266891169
 20
54.312282031143752
 30
0.0
 11
39.915141016378691
 21
58.664934846864973
 31
0.0
  0
POLYLINE
  5
BD9
  8
0
 66
     1
 10
0.0
 20
0.0
 30
0.0
  0
VERTEX
  5
F7B
  8
0
 10
39.915141016378691
 20
58.664934846864973
 30
0.0
  0
VERTEX
  5
F7C
  8
0
 10
38.982839033554797
 20
58.892651616574582
 30
0.0
  0
VERTEX
  5
F7D
  8
0
 10
37.438775165645097
 20
59.253474493843306
 30
0.0
  0
VERTEX
  5
F7E
  8
0
 10
35.498903433962141
 20
59.659823240851672
 30
0.0
  0
VERTEX
  5
F7F
  8
0
 10
34.328672262359312
 20
59.870230819624332
 30
0.0
  0
VERTEX
  5
F80
  8
0
 10
33.153847277002797
 20
60.052648636890353
 30
0.0
  0
VERTEX
  5
F81
  8
0
 10
31.975273015371609
 20
60.209753313924182
 30
0.0
  0
SEQEND
  5
F82
  8
0
  0
POLYLINE
  5
BDA
  8
0
 66
     1
 10
0.0
 20
0.0
 30
0.0
  0
VERTEX
  5
F83
  8
0
 10
31.975273015371609
 20
60.209753313924182
 30
0.0
  0
VERTEX
  5
F84
  8
0
 10
30.575460594070819
 20
60.357366215788034
 30
0.0
  0
VERTEX
  5
F85
  8
0
 10
29.171284275375449
 20
60.460159381948358
 30
0.0
  0
VERTEX
  5
F86
  8
0
 10
27.765134842658089
 20
60.532711799059477
 30
0.0
  0
SEQEND
  5
F87
  8
0
  0
POLYLINE
  5
BDB
  8
0
 66
     1
 10
0.0
 20
0.0
 30
0.0
  0
VERTEX
  5
F88
  8
0
 10
27.765134842658089
 20
60.532711799059477
 30
0.0
  0
VERTEX
  5
F89
  8
0
 10
26.492241877728588
 20
60.579767111655649
 30
0.0
  0
VERTEX
  5
F8A
  8
0
 10
25.855445202004269
 20
60.592318911395751
 30
0.0
  0
VERTEX
  5
F8B
  8
0
 10
24.900324157046668
 20
60.5896101286761
 30
0.0
  0
VERTEX
  5
F8C
  8
0
 10
23.468856070972269
 20
60.531828469517173
 30
0.0
  0
SEQEND
  5
F8D
  8
0
  0
POLYLINE
  5
BDC
  8
0
 66
     1
 10
0.0
 20
0.0
 30
0.0
  0
VERTEX
  5
F8E
  8
0
 10
23.468856070972269
 20
60.531828469517173
 30
0.0
  0
VERTEX
  5
F8F
  8
0
 10
22.733977163533719
 20
60.476648929370178
 30
0.0
  0
VERTEX
  5
F90
  8
0
 10
21.266728690512139
 20
60.332732960357809
 30
0.0
  0
SEQEND
  5
F91
  8
0
  0
POLYLINE
  5
BDD
  8
0
 66
     1
 10
0.0
 20
0.0
 30
0.0
  0
VERTEX
  5
F92
  8
0
 10
21.266728690512139
 20
60.332732960357809
 30
0.0
  0
VERTEX
  5
F93
  8
0
 10
20.274813751575831
 20
60.234211396805499
 30
0.0
  0
VERTEX
  5
F94
  8
0
 10
19.780333799044971
 20
60.173957110938318
 30
0.0
  0
VERTEX
  5
F95
  8
0
 10
19.043910667680109
 20
60.050283361777247
 30
0.0
  0
SEQEND
  5
F96
  8
0
  0
ARC
  5
BDE
  8
0
 10
21.209835901379002
 20
49.369763781527404
 30
0.0
 40
10.897933999999999
 50
101.4637549999986
 51
103.2838090000013
  0
LINE
  5
BDF
  8
0
 10
18.705759364439359
 20
59.97611927935462
 30
0.0
 11
17.95686323467287
 21
56.550613584445671
 31
0.0
  0
LINE
  5
BE0
  8
0
 10
17.95686323467287
 20
56.550613584445671
 30
0.0
 11
14.04916327386621
 21
57.404950584185542
 31
0.0
  0
LINE
  5
BE1
  8
0
 10
14.04916327386621
 20
57.404950584185542
 30
0.0
 11
7.7331710287363631
 21
56.372480086867931
 31
0.0
  0
ARC
  5
BE2
  8
0
 10
8.0558179845911582
 20
54.398680313500101
 30
0.0
 40
1.999999999999998
 50
99.283926999998314
 51
273.75989800000048
  0
LINE
  5
BE3
  8
0
 10
8.1869515771065817
 20
52.402989941909588
 30
0.0
 11
30.68033780350493
 21
53.881172030949351
 31
0.0
  0
POLYLINE
  5
BE4
  8
0
 66
     1
 10
0.0
 20
0.0
 30
0.0
  0
VERTEX
  5
F97
  8
0
 10
30.68033780350493
 20
53.881172030949351
 30
0.0
  0
VERTEX
  5
F98
  8
0
 10
35.033362819270337
 20
52.983352804788296
 30
0.0
  0
VERTEX
  5
F99
  8
0
 10
37.208721026349401
 20
52.528601392249918
 30
0.0
  0
VERTEX
  5
F9A
  8
0
 10
40.46764555243179
 20
51.828175215116872
 30
0.0
  0
SEQEND
  5
F9B
  8
0
  0
ARC
  5
BE5
  8
0
 10
8.0558179845911582
 20
62.398680313500101
 30
0.0
 40
0.75
 50
344.99999999999881
 51
165.00000499999899
  0
ARC
  5
BE6
  8
0
 10
8.0558179845911582
 20
62.398680313500101
 30
0.0
 40
0.75
 50
165.00000499999899
 51
344.99999999999881
  0
LINE
  5
BE7
  8
0
 10
40.46764555243179
 20
59.828175215116858
 30
0.0
 11
40.917381837441091
 21
61.885106120255841
 31
0.0
  0
LINE
  5
BE8
  8
0
 10
40.917381837441091
 20
61.885106120255841
 30
0.0
 11
38.963502266891169
 21
62.312282031143752
 31
0.0
  0
LINE
  5
BE9
  8
0
 10
38.963502266891169
 20
62.312282031143752
 30
0.0
 11
39.915141016378691
 21
66.66493484686498
 31
0.0
  0
POLYLINE
  5
BEA
  8
0
 66
     1
 10
0.0
 20
0.0
 30
0.0
  0
VERTEX
  5
F9C
  8
0
 10
39.915141016378691
 20
66.66493484686498
 30
0.0
  0
VERTEX
  5
F9D
  8
0
 10
38.982839033554797
 20
66.892651616574597
 30
0.0
  0
VERTEX
  5
F9E
  8
0
 10
37.438775165645097
 20
67.253474493843328
 30
0.0
  0
VERTEX
  5
F9F
  8
0
 10
35.498903433962141
 20
67.659823240851665
 30
0.0
  0
VERTEX
  5
FA0
  8
0
 10
34.328672262359312
 20
67.870230819624354
 30
0.0
  0
VERTEX
  5
FA1
  8
0
 10
33.153847277002797
 20
68.052648636890396
 30
0.0
  0
VERTEX
  5
FA2
  8
0
 10
31.975273015371609
 20
68.209753313924182
 30
0.0
  0
SEQEND
  5
FA3
  8
0
  0
POLYLINE
  5
BEB
  8
0
 66
     1
 10
0.0
 20
0.0
 30
0.0
  0
VERTEX
  5
FA4
  8
0
 10
31.975273015371609
 20
68.209753313924182
 30
0.0
  0
VERTEX
  5
FA5
  8
0
 10
30.575460594070819
 20
68.357366215788034
 30
0.0
  0
VERTEX
  5
FA6
  8
0
 10
29.171284275375449
 20
68.460159381948358
 30
0.0
  0
VERTEX
  5
FA7
  8
0
 10
27.765134842658089
 20
68.532711799059499
 30
0.0
  0
SEQEND
  5
FA8
  8
0
  0
POLYLINE
  5
BEC
  8
0
 66
     1
 10
0.0
 20
0.0
 30
0.0
  0
VERTEX
  5
FA9
  8
0
 10
27.765134842658089
 20
68.532711799059499
 30
0.0
  0
VERTEX
  5
FAA
  8
0
 10
26.492241877728588
 20
68.579767111655656
 30
0.0
  0
VERTEX
  5
FAB
  8
0
 10
25.855445202004269
 20
68.592318911395751
 30
0.0
  0
VERTEX
  5
FAC
  8
0
 10
24.900324157046668
 20
68.589610128676085
 30
0.0
  0
VERTEX
  5
FAD
  8
0
 10
23.468856070972269
 20
68.531828469517166
 30
0.0
  0
SEQEND
  5
FAE
  8
0
  0
POLYLINE
  5
BED
  8
0
 66
     1
 10
0.0
 20
0.0
 30
0.0
  0
VERTEX
  5
FAF
  8
0
 10
23.468856070972269
 20
68.531828469517166
 30
0.0
  0
VERTEX
  5
FB0
  8
0
 10
22.733977163533719
 20
68.476648929370185
 30
0.0
  0
VERTEX
  5
FB1
  8
0
 10
21.266728690512139
 20
68.332732960357816
 30
0.0
  0
SEQEND
  5
FB2
  8
0
  0
POLYLINE
  5
BEE
  8
0
 66
     1
 10
0.0
 20
0.0
 30
0.0
  0
VERTEX
  5
FB3
  8
0
 10
21.266728690512139
 20
68.332732960357816
 30
0.0
  0
VERTEX
  5
FB4
  8
0
 10
20.274813751575831
 20
68.234211396805506
 30
0.0
  0
VERTEX
  5
FB5
  8
0
 10
19.780333799044971
 20
68.173957110938318
 30
0.0
  0
VERTEX
  5
FB6
  8
0
 10
19.043910667680109
 20
68.050283361777247
 30
0.0
  0
SEQEND
  5
FB7
  8
0
  0
ARC
  5
BEF
  8
0
 10
21.209835901379002
 20
57.369763781527404
 30
0.0
 40
10.897933999999999
 50
101.4637549999986
 51
103.2838090000013
  0
LINE
  5
BF0
  8
0
 10
18.705759364439359
 20
67.976119279354634
 30
0.0
 11
17.95686323467287
 21
64.550613584445671
 31
0.0
  0
LINE
  5
BF1
  8
0
 10
17.95686323467287
 20
64.550613584445671
 30
0.0
 11
14.04916327386621
 21
65.404950584185542
 31
0.0
  0
LINE
  5
BF2
  8
0
 10
14.04916327386621
 20
65.404950584185542
 30
0.0
 11
7.7331710287363631
 21
64.372480086867924
 31
0.0
  0
ARC
  5
BF3
  8
0
 10
8.0558179845911582
 20
62.398680313500101
 30
0.0
 40
1.999999999999998
 50
99.283926999998314
 51
273.75989800000048
  0
LINE
  5
BF4
  8
0
 10
8.1869515771065817
 20
60.402989941909581
 30
0.0
 11
30.68033780350493
 21
61.881172030949358
 31
0.0
  0
POLYLINE
  5
BF5
  8
0
 66
     1
 10
0.0
 20
0.0
 30
0.0
  0
VERTEX
  5
FB8
  8
0
 10
30.68033780350493
 20
61.881172030949358
 30
0.0
  0
VERTEX
  5
FB9
  8
0
 10
35.033362819270337
 20
60.983352804788296
 30
0.0
  0
VERTEX
  5
FBA
  8
0
 10
37.208721026349401
 20
60.528601392249932
 30
0.0
  0
VERTEX
  5
FBB
  8
0
 10
40.46764555243179
 20
59.828175215116858
 30
0.0
  0
SEQEND
  5
FBC
  8
0
  0
ARC
  5
C07
  8
0
 10
44.055817984591158
 20
46.398680313500101
 30
0.0
 40
0.75
 50
344.99999999999881
 51
165.00000499999899
  0
ARC
  5
C08
  8
0
 10
44.055817984591158
 20
46.398680313500101
 30
0.0
 40
0.75
 50
165.00000499999899
 51
344.99999999999881
  0
LINE
  5
C09
  8
0
 10
76.467645552431819
 20
43.82817521511685
 30
0.0
 11
76.917381837441098
 21
45.885106120255891
 31
0.0
  0
LINE
  5
C0A
  8
0
 10
76.917381837441098
 20
45.885106120255891
 30
0.0
 11
74.963502266891155
 21
46.312282031143752
 31
0.0
  0
LINE
  5
C0B
  8
0
 10
74.963502266891155
 20
46.312282031143752
 30
0.0
 11
75.915141016378811
 21
50.664934846864973
 31
0.0
  0
POLYLINE
  5
C0C
  8
0
 66
     1
 10
0.0
 20
0.0
 30
0.0
  0
VERTEX
  5
FBD
  8
0
 10
75.915141016378811
 20
50.664934846864973
 30
0.0
  0
VERTEX
  5
FBE
  8
0
 10
74.982839033555123
 20
50.892651616574597
 30
0.0
  0
VERTEX
  5
FBF
  8
0
 10
73.438775165645097
 20
51.253474493843321
 30
0.0
  0
VERTEX
  5
FC0
  8
0
 10
71.4989034339618
 20
51.659823240851672
 30
0.0
  0
VERTEX
  5
FC1
  8
0
 10
70.328672262359291
 20
51.870230819624346
 30
0.0
  0
VERTEX
  5
FC2
  8
0
 10
69.153847277002797
 20
52.052648636890403
 30
0.0
  0
VERTEX
  5
FC3
  8
0
 10
67.975273015371499
 20
52.209753313924182
 30
0.0
  0
SEQEND
  5
FC4
  8
0
  0
POLYLINE
  5
C0D
  8
0
 66
     1
 10
0.0
 20
0.0
 30
0.0
  0
VERTEX
  5
FC5
  8
0
 10
67.975273015371499
 20
52.209753313924182
 30
0.0
  0
VERTEX
  5
FC6
  8
0
 10
66.575460594070591
 20
52.357366215788034
 30
0.0
  0
VERTEX
  5
FC7
  8
0
 10
65.171284275375456
 20
52.460159381948358
 30
0.0
  0
VERTEX
  5
FC8
  8
0
 10
63.765134842658071
 20
52.532711799059541
 30
0.0
  0
SEQEND
  5
FC9
  8
0
  0
POLYLINE
  5
C0E
  8
0
 66
     1
 10
0.0
 20
0.0
 30
0.0
  0
VERTEX
  5
FCA
  8
0
 10
63.765134842658071
 20
52.532711799059541
 30
0.0
  0
VERTEX
  5
FCB
  8
0
 10
62.492241877728567
 20
52.579767111655642
 30
0.0
  0
VERTEX
  5
FCC
  8
0
 10
61.855445202004489
 20
52.592318911395751
 30
0.0
  0
VERTEX
  5
FCD
  8
0
 10
60.90032415704696
 20
52.5896101286761
 30
0.0
  0
VERTEX
  5
FCE
  8
0
 10
59.468856070972251
 20
52.531828469517151
 30
0.0
  0
SEQEND
  5
FCF
  8
0
  0
POLYLINE
  5
C0F
  8
0
 66
     1
 10
0.0
 20
0.0
 30
0.0
  0
VERTEX
  5
FD0
  8
0
 10
59.468856070972251
 20
52.531828469517151
 30
0.0
  0
VERTEX
  5
FD1
  8
0
 10
58.733977163533488
 20
52.476648929370178
 30
0.0
  0
VERTEX
  5
FD2
  8
0
 10
57.266728690512309
 20
52.332732960357824
 30
0.0
  0
SEQEND
  5
FD3
  8
0
  0
POLYLINE
  5
C10
  8
0
 66
     1
 10
0.0
 20
0.0
 30
0.0
  0
VERTEX
  5
FD4
  8
0
 10
57.266728690512309
 20
52.332732960357824
 30
0.0
  0
VERTEX
  5
FD5
  8
0
 10
56.274813751575479
 20
52.234211396805492
 30
0.0
  0
VERTEX
  5
FD6
  8
0
 10
55.780333799045252
 20
52.173957110938318
 30
0.0
  0
VERTEX
  5
FD7
  8
0
 10
55.043910667680038
 20
52.050283361777247
 30
0.0
  0
SEQEND
  5
FD8
  8
0
  0
ARC
  5
C11
  8
0
 10
57.20983590137871
 20
41.369763781527404
 30
0.0
 40
10.897933999999999
 50
101.4637549999986
 51
103.2838090000013
  0
LINE
  5
C12
  8
0
 10
54.705759364439352
 20
51.97611927935462
 30
0.0
 11
53.95686323467271
 21
48.550613584445671
 31
0.0
  0
LINE
  5
C13
  8
0
 10
53.95686323467271
 20
48.550613584445671
 30
0.0
 11
50.04916327386649
 21
49.404950584185542
 31
0.0
  0
LINE
  5
C14
  8
0
 10
50.04916327386649
 20
49.404950584185542
 30
0.0
 11
43.733171028736592
 21
48.372480086867931
 31
0.0
  0
ARC
  5
C15
  8
0
 10
44.055817984591158
 20
46.398680313500101
 30
0.0
 40
1.999999999999998
 50
99.283926999998314
 51
273.75989800000048
  0
LINE
  5
C16
  8
0
 10
44.186951577106583
 20
44.402989941909603
 30
0.0
 11
66.680337803504941
 21
45.881172030949351
 31
0.0
  0
POLYLINE
  5
C17
  8
0
 66
     1
 10
0.0
 20
0.0
 30
0.0
  0
VERTEX
  5
FD9
  8
0
 10
66.680337803504941
 20
45.881172030949351
 30
0.0
  0
VERTEX
  5
FDA
  8
0
 10
71.033362819270565
 20
44.983352804788282
 30
0.0
  0
VERTEX
  5
FDB
  8
0
 10
73.208721026349622
 20
44.528601392249911
 30
0.0
  0
VERTEX
  5
FDC
  8
0
 10
76.467645552431819
 20
43.82817521511685
 30
0.0
  0
SEQEND
  5
FDD
  8
0
  0
ARC
  5
C18
  8
0
 10
44.055817984591158
 20
54.398680313500101
 30
0.0
 40
0.75
 50
344.99999999999881
 51
165.00000499999899
  0
ARC
  5
C19
  8
0
 10
44.055817984591158
 20
54.398680313500101
 30
0.0
 40
0.75
 50
165.00000499999899
 51
344.99999999999881
  0
LINE
  5
C1A
  8
0
 10
76.467645552431819
 20
51.828175215116872
 30
0.0
 11
76.917381837441098
 21
53.885106120255841
 31
0.0
  0
LINE
  5
C1B
  8
0
 10
76.917381837441098
 20
53.885106120255841
 30
0.0
 11
74.963502266891155
 21
54.312282031143752
 31
0.0
  0
LINE
  5
C1C
  8
0
 10
74.963502266891155
 20
54.312282031143752
 30
0.0
 11
75.915141016378811
 21
58.664934846864973
 31
0.0
  0
POLYLINE
  5
C1D
  8
0
 66
     1
 10
0.0
 20
0.0
 30
0.0
  0
VERTEX
  5
FDE
  8
0
 10
75.915141016378811
 20
58.664934846864973
 30
0.0
  0
VERTEX
  5
FDF
  8
0
 10
74.982839033555123
 20
58.892651616574582
 30
0.0
  0
VERTEX
  5
FE0
  8
0
 10
73.438775165645097
 20
59.253474493843306
 30
0.0
  0
VERTEX
  5
FE1
  8
0
 10
71.4989034339618
 20
59.659823240851672
 30
0.0
  0
VERTEX
  5
FE2
  8
0
 10
70.328672262359291
 20
59.870230819624332
 30
0.0
  0
VERTEX
  5
FE3
  8
0
 10
69.153847277002797
 20
60.052648636890353
 30
0.0
  0
VERTEX
  5
FE4
  8
0
 10
67.975273015371499
 20
60.209753313924182
 30
0.0
  0
SEQEND
  5
FE5
  8
0
  0
POLYLINE
  5
C1E
  8
0
 66
     1
 10
0.0
 20
0.0
 30
0.0
  0
VERTEX
  5
FE6
  8
0
 10
67.975273015371499
 20
60.209753313924182
 30
0.0
  0
VERTEX
  5
FE7
  8
0
 10
66.575460594070591
 20
60.357366215788034
 30
0.0
  0
VERTEX
  5
FE8
  8
0
 10
65.171284275375456
 20
60.460159381948358
 30
0.0
  0
VERTEX
  5
FE9
  8
0
 10
63.765134842658071
 20
60.532711799059477
 30
0.0
  0
SEQEND
  5
FEA
  8
0
  0
POLYLINE
  5
C1F
  8
0
 66
     1
 10
0.0
 20
0.0
 30
0.0
  0
VERTEX
  5
FEB
  8
0
 10
63.765134842658071
 20
60.532711799059477
 30
0.0
  0
VERTEX
  5
FEC
  8
0
 10
62.492241877728567
 20
60.579767111655649
 30
0.0
  0
VERTEX
  5
FED
  8
0
 10
61.855445202004489
 20
60.592318911395751
 30
0.0
  0
VERTEX
  5
FEE
  8
0
 10
60.90032415704696
 20
60.5896101286761
 30
0.0
  0
VERTEX
  5
FEF
  8
0
 10
59.468856070972251
 20
60.531828469517173
 30
0.0
  0
SEQEND
  5
FF0
  8
0
  0
POLYLINE
  5
C20
  8
0
 66
     1
 10
0.0
 20
0.0
 30
0.0
  0
VERTEX
  5
FF1
  8
0
 10
59.468856070972251
 20
60.531828469517173
 30
0.0
  0
VERTEX
  5
FF2
  8
0
 10
58.733977163533488
 20
60.476648929370178
 30
0.0
  0
VERTEX
  5
FF3
  8
0
 10
57.266728690512309
 20
60.332732960357809
 30
0.0
  0
SEQEND
  5
FF4
  8
0
  0
POLYLINE
  5
C21
  8
0
 66
     1
 10
0.0
 20
0.0
 30
0.0
  0
VERTEX
  5
FF5
  8
0
 10
57.266728690512309
 20
60.332732960357809
 30
0.0
  0
VERTEX
  5
FF6
  8
0
 10
56.274813751575479
 20
60.234211396805499
 30
0.0
  0
VERTEX
  5
FF7
  8
0
 10
55.780333799045252
 20
60.173957110938318
 30
0.0
  0
VERTEX
  5
FF8
  8
0
 10
55.043910667680038
 20
60.050283361777247
 30
0.0
  0
SEQEND
  5
FF9
  8
0
  0
ARC
  5
C22
  8
0
 10
57.20983590137871
 20
49.369763781527404
 30
0.0
 40
10.897933999999999
 50
101.4637549999986
 51
103.2838090000013
  0
LINE
  5
C23
  8
0
 10
54.705759364439352
 20
59.97611927935462
 30
0.0
 11
53.95686323467271
 21
56.550613584445671
 31
0.0
  0
LINE
  5
C24
  8
0
 10
53.95686323467271
 20
56.550613584445671
 30
0.0
 11
50.04916327386649
 21
57.404950584185542
 31
0.0
  0
LINE
  5
C25
  8
0
 10
50.04916327386649
 20
57.404950584185542
 30
0.0
 11
43.733171028736592
 21
56.372480086867931
 31
0.0
  0
ARC
  5
C26
  8
0
 10
44.055817984591158
 20
54.398680313500101
 30
0.0
 40
1.999999999999998
 50
99.283926999998314
 51
273.75989800000048
  0
LINE
  5
C27
  8
0
 10
44.186951577106583
 20
52.402989941909588
 30
0.0
 11
66.680337803504941
 21
53.881172030949351
 31
0.0
  0
POLYLINE
  5
C28
  8
0
 66
     1
 10
0.0
 20
0.0
 30
0.0
  0
VERTEX
  5
FFA
  8
0
 10
66.680337803504941
 20
53.881172030949351
 30
0.0
  0
VERTEX
  5
FFB
  8
0
 10
71.033362819270565
 20
52.983352804788296
 30
0.0
  0
VERTEX
  5
FFC
  8
0
 10
73.208721026349622
 20
52.528601392249918
 30
0.0
  0
VERTEX
  5
FFD
  8
0
 10
76.467645552431819
 20
51.828175215116872
 30
0.0
  0
SEQEND
  5
FFE
  8
0
  0
ARC
  5
C29
  8
0
 10
44.055817984591158
 20
62.398680313500101
 30
0.0
 40
0.75
 50
344.99999999999881
 51
165.00000499999899
  0
ARC
  5
C2A
  8
0
 10
44.055817984591158
 20
62.398680313500101
 30
0.0
 40
0.75
 50
165.00000499999899
 51
344.99999999999881
  0
LINE
  5
C2B
  8
0
 10
76.467645552431819
 20
59.828175215116858
 30
0.0
 11
76.917381837441098
 21
61.885106120255841
 31
0.0
  0
LINE
  5
C2C
  8
0
 10
76.917381837441098
 20
61.885106120255841
 30
0.0
 11
74.963502266891155
 21
62.312282031143752
 31
0.0
  0
LINE
  5
C2D
  8
0
 10
74.963502266891155
 20
62.312282031143752
 30
0.0
 11
75.915141016378811
 21
66.66493484686498
 31
0.0
  0
POLYLINE
  5
C2E
  8
0
 66
     1
 10
0.0
 20
0.0
 30
0.0
  0
VERTEX
  5
FFF
  8
0
 10
75.915141016378811
 20
66.66493484686498
 30
0.0
  0
VERTEX
  5
1000
  8
0
 10
74.982839033555123
 20
66.892651616574597
 30
0.0
  0
VERTEX
  5
1001
  8
0
 10
73.438775165645097
 20
67.253474493843328
 30
0.0
  0
VERTEX
  5
1002
  8
0
 10
71.4989034339618
 20
67.659823240851665
 30
0.0
  0
VERTEX
  5
1003
  8
0
 10
70.328672262359291
 20
67.870230819624354
 30
0.0
  0
VERTEX
  5
1004
  8
0
 10
69.153847277002797
 20
68.052648636890396
 30
0.0
  0
VERTEX
  5
1005
  8
0
 10
67.975273015371499
 20
68.209753313924182
 30
0.0
  0
SEQEND
  5
1006
  8
0
  0
POLYLINE
  5
C2F
  8
0
 66
     1
 10
0.0
 20
0.0
 30
0.0
  0
VERTEX
  5
1007
  8
0
 10
67.975273015371499
 20
68.209753313924182
 30
0.0
  0
VERTEX
  5
1008
  8
0
 10
66.575460594070591
 20
68.357366215788034
 30
0.0
  0
VERTEX
  5
1009
  8
0
 10
65.171284275375456
 20
68.460159381948358
 30
0.0
  0
VERTEX
  5
100A
  8
0
 10
63.765134842658071
 20
68.532711799059499
 30
0.0
  0
SEQEND
  5
100B
  8
0
  0
POLYLINE
  5
C30
  8
0
 66
     1
 10
0.0
 20
0.0
 30
0.0
  0
VERTEX
  5
100C
  8
0
 10
63.765134842658071
 20
68.532711799059499
 30
0.0
  0
VERTEX
  5
100D
  8
0
 10
62.492241877728567
 20
68.579767111655656
 30
0.0
  0
VERTEX
  5
100E
  8
0
 10
61.855445202004489
 20
68.592318911395751
 30
0.0
  0
VERTEX
  5
100F
  8
0
 10
60.90032415704696
 20
68.589610128676085
 30
0.0
  0
VERTEX
  5
1010
  8
0
 10
59.468856070972251
 20
68.531828469517166
 30
0.0
  0
SEQEND
  5
1011
  8
0
  0
POLYLINE
  5
C31
  8
0
 66
     1
 10
0.0
 20
0.0
 30
0.0
  0
VERTEX
  5
1012
  8
0
 10
59.468856070972251
 20
68.531828469517166
 30
0.0
  0
VERTEX
  5
1013
  8
0
 10
58.733977163533488
 20
68.476648929370185
 30
0.0
  0
VERTEX
  5
1014
  8
0
 10
57.266728690512309
 20
68.332732960357816
 30
0.0
  0
SEQEND
  5
1015
  8
0
  0
POLYLINE
  5
C32
  8
0
 66
     1
 10
0.0
 20
0.0
 30
0.0
  0
VERTEX
  5
1016
  8
0
 10
57.266728690512309
 20
68.332732960357816
 30
0.0
  0
VERTEX
  5
1017
  8
0
 10
56.274813751575479
 20
68.234211396805506
 30
0.0
  0
VERTEX
  5
1018
  8
0
 10
55.780333799045252
 20
68.173957110938318
 30
0.0
  0
VERTEX
  5
1019
  8
0
 10
55.043910667680038
 20
68.050283361777247
 30
0.0
  0
SEQEND
  5
101A
  8
0
  0
ARC
  5
C33
  8
0
 10
57.20983590137871
 20
57.369763781527404
 30
0.0
 40
10.897933999999999
 50
101.4637549999986
 51
103.2838090000013
  0
LINE
  5
C34
  8
0
 10
54.705759364439352
 20
67.976119279354634
 30
0.0
 11
53.95686323467271
 21
64.550613584445671
 31
0.0
  0
LINE
  5
C35
  8
0
 10
53.95686323467271
 20
64.550613584445671
 30
0.0
 11
50.04916327386649
 21
65.404950584185542
 31
0.0
  0
LINE
  5
C36
  8
0
 10
50.04916327386649
 20
65.404950584185542
 30
0.0
 11
43.733171028736592
 21
64.372480086867924
 31
0.0
  0
ARC
  5
C37
  8
0
 10
44.055817984591158
 20
62.398680313500101
 30
0.0
 40
1.999999999999998
 50
99.283926999998314
 51
273.75989800000048
  0
LINE
  5
C38
  8
0
 10
44.186951577106583
 20
60.402989941909581
 30
0.0
 11
66.680337803504941
 21
61.881172030949358
 31
0.0
  0
POLYLINE
  5
C39
  8
0
 66
     1
 10
0.0
 20
0.0
 30
0.0
  0
VERTEX
  5
101B
  8
0
 10
66.680337803504941
 20
61.881172030949358
 30
0.0
  0
VERTEX
  5
101C
  8
0
 10
71.033362819270565
 20
60.983352804788296
 30
0.0
  0
VERTEX
  5
101D
  8
0
 10
73.208721026349622
 20
60.528601392249932
 30
0.0
  0
VERTEX
  5
101E
  8
0
 10
76.467645552431819
 20
59.828175215116858
 30
0.0
  0
SEQEND
  5
101F
  8
0
  0
LINE
  5
C5C
  8
0
 10
243.0832417370853
 20
5.0
 30
0.0
 11
243.08324173708519
 21
9.0
 31
0.0
  0
LINE
  5
C5D
  8
0
 10
290.08324173708519
 20
5.0
 30
0.0
 11
290.08324173708519
 21
9.0
 31
0.0
  0
LINE
  5
C5E
  8
0
 10
352.08324173708519
 20
5.0
 30
0.0
 11
352.08324173708519
 21
9.0
 31
0.0
  0
LINE
  5
C5F
  8
0
 10
352.08324173708519
 20
7.0
 30
0.0
 11
243.0832417370853
 21
7.0
 31
0.0
  0
LINE
  5
C60
  8
0
 10
352.08324173708519
 20
9.0
 30
0.0
 11
243.0832417370853
 21
9.0
 31
0.0
  0
INSERT
  5
C62
  8
TEXT_DIMENSIUNI
  2
*U9
 10
0.0
 20
0.0
 30
0.0
  0
DIMENSION
  5
C63
  8
TEXT_DIMENSIUNI
  2
*D10
 10
600.0
 20
99.436824505591304
 30
0.0
 11
300.0
 21
101.3118245055913
 31
0.0
 70
     0
 13
0.0
 23
75.0
 33
0.0
 14
600.0
 24
75.0
 34
0.0
1001
ACAD
1000
DSTYLE
1002
{
1070
   287
1070
     3
1070
   287
1070
     3
1070
    41
1040
2.5
1070
    42
1040
0.625
1070
    43
1040
3.75
1070
    44
1040
1.25
1070
    73
1070
     0
1070
    74
1070
     0
1070
    77
1070
     1
1070
    78
1070
     8
1070
   140
1040
2.5
1070
   141
1040
2.5
1070
   143
1040
0.03937
1070
   147
1040
0.625
1070
   171
1070
     3
1070
   172
1070
     1
1070
   274
1070
     2
1070
   279
1070
     0
1070
   284
1070
     0
1070
   285
1070
     0
1070
   286
1070
     0
1002
}
  0
DIMENSION
  5
C70
  8
TEXT_DIMENSIUNI
  2
*D11
 10
623.93498372650265
 20
74.999999999999986
 30
0.0
 11
622.05998372650265
 21
37.500000000000092
 31
0.0
 70
     0
 13
600.0
 23
0.0
 33
0.0
 14
600.0
 24
75.0
 34
0.0
 50
270.0
1001
ACAD
1000
DSTYLE
1002
{
1070
   287
1070
     3
1070
   287
1070
     3
1070
    41
1040
2.5
1070
    42
1040
0.625
1070
    43
1040
3.75
1070
    44
1040
1.25
1070
    73
1070
     0
1070
    74
1070
     0
1070
    77
1070
     1
1070
    78
1070
     8
1070
   140
1040
2.5
1070
   141
1040
2.5
1070
   143
1040
0.03937
1070
   147
1040
0.625
1070
   171
1070
     3
1070
   172
1070
     1
1070
   274
1070
     2
1070
   279
1070
     0
1070
   284
1070
     0
1070
   285
1070
     0
1070
   286
1070
     0
1002
}
  0
VIEWPORT
  5
C5
 67
     1
  8
0
 62
     0
 10
0.0
 20
0.0
 30
0.0
 40
1000.0
 41
1000.0
 68
     1
 69
     1
1001
ACAD
1000
MVIEW
1002
{
1070
    16
1010
0.0
1020
0.0
1030
0.0
1010
0.0
1020
0.0
1030
1.0
1040
0.0
1040
1000.0
1040
0.0
1040
0.0
1040
50.0
1040
0.0
1040
0.0
1070
     0
1070
   100
1070
     1
1070
     1
1070
     0
1070
     0
1070
     0
1070
     0
1040
0.0
1040
0.0
1040
0.0
1040
1.0
1040
1.0
1040
1.0
1040
1.0
1070
     0
1002
{
1002
}
1002
}
  0
ENDSEC
  0
EOF
